小众纪录片影视聚合

 找回密码
 立即注册
查看: 3|回复: 0

[蓝光电影] [2022][大陆][犯罪][WEB-4K]局中劫[国语配音/中文字幕].Robbery.2022.2160p.WEB-DL.H265.AAC- 3.41GB

[复制链接]

113万

主题

113万

帖子

113万

积分

超级版主

Rank: 8Rank: 8

积分
1134658
发表于 2024-7-9 21:23:59 | 显示全部楼层 |阅读模式


[2022][大陆][犯罪][WEB-4K]局中劫[国语配音/中文字幕].Robbery.2022.2160p.WEB-DL.H265.AAC- 3.41GB

完整标题:局中劫[国语配音/中文字幕].Robbery.2022.2160p.WEB-DL.H265.AAC-BATWEB 3.41GB
◎标  题 局中劫
◎年  代 2022
◎产  地 中国大陆
◎类  别 犯罪
◎语  言 汉语普通话
◎上映日期 2022-12-10(中国大陆)
◎IMDb链接 https://www.imdb.com/title//
◎豆瓣链接 https://movie.douban.com/subject/36188884/
◎片  长 83分钟
◎演  员 黎明明 Mingming Li
       翁虹 Yvonne Yung
       尹子维 Terence Yin
       蔡德姮 Sildy
       丘子健 Single
◎简  介
    随着剧情推展,市民被伤等情节陆续出现,片中的火锅店是香港历史的缩影,传承两代,深受坊众爱戴欢迎,男主角从父亲手中接棒经营,努力将它发扬光大。火锅店遇上特殊时期,生意受挫, 男主角身为东主,仍然咬紧牙关,不肯辞退员工,期望特殊的日子早日过去,生活重归正常,充份体现香港人的拚搏精神,即使遇上风浪,对前景仍然信心十足。匪徒不懂收敛,变本加厉,把火锅店变成挟持人质的犯罪现场,员工顾客生命备受威胁,未婚妻更遭匪徒掳走,令男主角忍无可忍, 决心出手制暴,将匪徒绳之于法,这个结局,完全符合香港人的主流愿望。
点击图片可查看大图
软字幕无法在截图上展现,HDR版本/杜比视界版本截图会出现颜色异常,请使用支持的设备播放!
##### MediaInfo ######
General
Unique ID                                : 235758293617190089370091466926552720079 (0xB15D654EA8D3DA50DAEE79B19C0722CF)
Complete name                            : Robbery.2022.2160p.WEB-DL.H265.AAC-BATWEB.mkv
Duration                                 : 1 h 23 min
Overall bit rate                         : 5 820 kb/s
Video
ID                                       : 1
Format                                   : HEVC
Format/Info                              : High Efficiency Video Coding
Format profile                           : Main@L5@Main
Codec ID                                 : V_MPEGH/ISO/HEVC
Duration                                 : 1 h 23 min
Bit rate                                 : 5 628 kb/s
Width                                    : 3 840 pixels
Height                                   : 2 160 pixels
Display aspect ratio                     : 16:9
Frame rate mode                          : Constant
Frame rate                               : 24.000 FPS
Color space                              : YUV
Chroma subsampling                       : 4:2:0
Bit depth                                : 8 bits
Bits/(Pixel*Frame)                       : 0.028
Stream size                              : 3.29 GiB (97%)
Language                                 : Chinese
Default                                  : Yes
Forced                                   : No
Audio
ID                                       : 2
Format                                   : AAC LC
Format/Info                              : Advanced Audio Codec Low Complexity
Codec ID                                 : A_AAC-2
Duration                                 : 1 h 23 min
Bit rate                                 : 192 kb/s
Channel(s)                               : 2 channels
Channel layout                           : L R
Sampling rate                            : 44.1 kHz
Frame rate                               : 43.066 FPS (1024 SPF)
Compression mode                         : Lossy
Stream size                              : 114 MiB (3%)
Default                                  : No
Forced                                   : No
部分资源为软字幕,移动端推荐播放器:MxPlayer,nPlayer,infuse ,其他播放器请自行尝试。
部分资源为软字幕,电脑端推荐播放器:PotPlayer,完美解码,KMPLAYER,其他播放器请自行尝试。






~~~~~~~~~~~~~~~~~~~~~~~~~~~~~~~~~~~~~~~~~
[2022][大陆][犯罪][WEB-4K]局中劫[国语配音/中文字幕].Robbery.2022.2160p.WEB-DL.H265.AAC- 3.41GB

【文件列表】:


Robbery.2022.2160p.WEB-DL.H265.AAC-BATWEB.



【下载地址列表】:


游客
文件下载链接就在这里,在您回复评论成功后才能显示。
请勿回复无意义的灌水内容。


下拉页面到最底部回复或者【点击此处快捷回复】,回复后返回此处即可查看下载链接。
如您没注册本站会员,可以点击注册本站,注册后即可回复下载。



软字幕无法在截图上展现,HDR版本/杜比视界版本截图会出现颜色异常,请使用支持的设备播放!






[img][/img]






[img][/img]

(HDR版本/杜比视界版本,截图会出现颜色异常,请使用支持的设备播放)

小贴士:【影视自媒体解说文案请移步:夏至文案解说网 www.xiazhi.vip

上一篇:[2009][大陆][WEB-1080P]小村大道[国语配音/中文字幕].Xiao.Cun.Da.Dao.2009.1080p.WEB-DL.H264.AAC- 1.79GB
下一篇:[2022][大陆][犯罪][WEB-4K]局中劫[国语配音/中文字幕].Robbery.2022.2160p.WEB-DL.H265.EDR.AAC- 8.95GB
回复

使用道具 举报

您需要登录后才可以回帖 登录 | 立即注册

本版积分规则

Archiver|手机版|小众纪录片影视聚合

GMT+8, 2024-7-22 06:36 , Processed in 0.120579 second(s), 14 queries , Gzip On, Redis On.

Powered by 小众纪录片影视聚合 @2010-2023

Copyright © 2010-2024, https://www.xzjlp.com/.


免责说明:本站所有内容链接、图文介绍等均来自于互联网网友分享,本站仅支持web页面展示和文字介绍,绝不提供在线观看和存储服务,也不参与录制、上传、压片。若本站收录内容无意侵犯贵司版权,请发邮件到【a885185#163.com】联系本站,我们将在第一时间删除侵权内容。谢谢!

快速回复 返回顶部 返回列表