小众纪录片影视聚合

 找回密码
 立即注册
查看: 7|回复: 0

[蓝光电影] [2023][欧美][剧情][WEB-4K]恶世之子[国语配音].To.Catch.a.Killer.2024.2160p.WEB-DL.H265.DDP5.1- 3.53GB

[复制链接]

113万

主题

113万

帖子

113万

积分

超级版主

Rank: 8Rank: 8

积分
1134679
发表于 2024-7-9 21:24:24 | 显示全部楼层 |阅读模式


[2023][欧美][剧情][WEB-4K]恶世之子[国语配音].To.Catch.a.Killer.2024.2160p.WEB-DL.H265.DDP5.1- 3.53GB

完整标题:恶世之子[国语配音].To.Catch.a.Killer.2024.2160p.WEB-DL.H265.DDP5.1-BATWEB 3.53GB
◎标  题 恶世之子
◎译  名 追凶 / 追捕杀人狂(港) / 限时追捕(台) / To Catch A Killer / Misántropo
◎片  名 Misanthrope
◎年  代 2023
◎产  地 美国
◎类  别 剧情 / 动作 / 悬疑 / 惊悚 / 犯罪
◎语  言 英语
◎上映日期 2023-07-28(中国大陆) / 2023-04-21(美国) / 2023-04-27(北京国际电影节)
◎IMDb评分 6.6/10 (32655人评价)
◎IMDb链接 https://www.imdb.com/title/tt10275534/
◎豆瓣评分 6.6/10 (8852人评价)
◎豆瓣链接 https://movie.douban.com/subject/33433393/
◎片  长 120分钟
◎导  演 达米安·斯兹弗隆 Damián Szifron
◎编  剧 达米安·斯兹弗隆 Damián Szifron
       乔纳森·韦克哈姆 Jonathan Wakeham
◎演  员 谢琳·伍德蕾 Shailene Woodley
       本·门德尔森 Ben Mendelsohn
       拉尔夫·伊内森 Ralph Ineson
       约翰·艾德坡 Jovan Adepo
       马塞拉·伦茨·波普 Marcella Lentz-Pope
       萝丝玛丽·邓斯莫尔 Rosemary Dunsmore
       迈克尔·克莱姆 Michael Cram
       达西·劳瑞 Darcy Laurie
       马克·卡马乔 Mark Camacho
       亚瑟·霍尔顿 Arthur Holden
       理查德·泽曼 Richard Zeman
       杰森·卡弗利尔 Jason Cavalier
       杜桑恩·杜基齐 Dusan Dukic
       亚历克斯·格雷文施泰因 Alex Gravenstein
       肖恩·塔克 Sean Tucker
       鲍比·布朗 Bobby Brown
       马克·安东尼·克鲁帕 Mark Antony Krupa
       乔安·哈特 Joan Hart
       李凯莉 Kelly Lee
       马克·戴 Mark Day
       海蒂·福斯 Heidi Foss
       毛里齐奥·泰拉扎诺 Maurizio Terrazzano
       麦莎·乌里 Maissa Houri
◎简  介
    新年前夜,神秘杀手在美国市中心的一栋高层,大规模远程枪杀狂欢的人群。29人死亡,枪枪毙命,案发现场找不到任何弹壳、指纹等证物,杀手毫无踪迹。三天后,杀手又在大型购物中心大开杀戒,数十位市民和安保人员中弹身亡,一组特警队员也被杀手用手榴弹团灭。                                    联邦调查局长官兰马克(本·门德尔森 Ben Mendelsohn 饰)和其爱徒——年轻女警艾丽诺(谢琳·伍德蕾 Shailene Woodley 饰),奉命查案,但州政府、当地警局都妄图夺取功劳,争权夺利,甚至执行兰马克强烈反对的特警行动,但这些行动造成的市民伤亡却又归咎于兰马克,无比荒谬,完全失控。也正是这个荒谬的恶世,塑造了今日的杀手。师徒二人在走投无路之际,艾丽诺发现了关键线索,带她无限接近恶世深渊之中。
点击图片可查看大图
软字幕无法在截图上展现,HDR版本/杜比视界版本截图会出现颜色异常,请使用支持的设备播放!
##### MediaInfo ######
General
Unique ID                                : 32362423512736881112402656791343481760 (0x1858C6AB518632EDDC96DBF6E6CD43A0)
Complete name                            : To.Catch.a.Killer.2024.2160p.WEB-DL.H265.DDP5.1-BATWEB.mkv
Duration                                 : 1 h 59 min
Overall bit rate                         : 4 240 kb/s
Video
ID                                       : 1
Format                                   : HEVC
Format/Info                              : High Efficiency Video Coding
Format profile                           : Main@L5@Main
Codec ID                                 : V_MPEGH/ISO/HEVC
Duration                                 : 1 h 59 min
Bit rate                                 : 3 791 kb/s
Width                                    : 3 840 pixels
Height                                   : 1 608 pixels
Display aspect ratio                     : 2.40:1
Frame rate mode                          : Constant
Frame rate                               : 24.000 FPS
Color space                              : YUV
Chroma subsampling                       : 4:2:0
Bit depth                                : 8 bits
Bits/(Pixel*Frame)                       : 0.026
Stream size                              : 3.15 GiB (89%)
Language                                 : Chinese
Default                                  : Yes
Forced                                   : No
Audio #1
ID                                       : 2
Format                                   : AAC LC
Format/Info                              : Advanced Audio Codec Low Complexity
Codec ID                                 : A_AAC-2
Duration                                 : 1 h 59 min
Bit rate                                 : 192 kb/s
Channel(s)                               : 2 channels
Channel layout                           : L R
Sampling rate                            : 44.1 kHz
Frame rate                               : 43.066 FPS (1024 SPF)
Compression mode                         : Lossy
Stream size                              : 162 MiB (4%)
Default                                  : No
Forced                                   : No
Audio #2
ID                                       : 3
Format                                   : E-AC-3
Format/Info                              : Enhanced AC-3
Commercial name                          : Dolby Digital Plus
Codec ID                                 : A_EAC3
Duration                                 : 1 h 59 min
Bit rate mode                            : Constant
Bit rate                                 : 256 kb/s
Channel(s)                               : 6 channels
Channel layout                           : L R C LFE Ls Rs
Sampling rate                            : 48.0 kHz
Frame rate                               : 31.250 FPS (1536 SPF)
Compression mode                         : Lossy
Stream size                              : 218 MiB (6%)
Title                                    : zh-ch [Dolby Digital Plus 5.1]
Language                                 : Chinese
Service kind                             : Complete Main
Default                                  : Yes
Forced                                   : No
部分资源为软字幕,移动端推荐播放器:MxPlayer,nPlayer,infuse ,其他播放器请自行尝试。
部分资源为软字幕,电脑端推荐播放器:PotPlayer,完美解码,KMPLAYER,其他播放器请自行尝试。






~~~~~~~~~~~~~~~~~~~~~~~~~~~~~~~~~~~~~~~~~
[2023][欧美][剧情][WEB-4K]恶世之子[国语配音].To.Catch.a.Killer.2024.2160p.WEB-DL.H265.DDP5.1- 3.53GB

【文件列表】:


To.Catch.a.Killer.2024.2160p.WEB-DL.H265.DDP5.1-BATWEB.



【下载地址列表】:


游客
文件下载链接就在这里,在您回复评论成功后才能显示。
请勿回复无意义的灌水内容。


下拉页面到最底部回复或者【点击此处快捷回复】,回复后返回此处即可查看下载链接。
如您没注册本站会员,可以点击注册本站,注册后即可回复下载。



软字幕无法在截图上展现,HDR版本/杜比视界版本截图会出现颜色异常,请使用支持的设备播放!






[img][/img]






[img][/img]

(HDR版本/杜比视界版本,截图会出现颜色异常,请使用支持的设备播放)

小贴士:【影视自媒体解说文案请移步:夏至文案解说网 www.xiazhi.vip

上一篇:[2023][欧美][剧情][WEB-1080P]恶世之子[无字片源].To.Catch.a.Killer.2024.1080p.WEB-DL.H265.AAC- 1.29GB
下一篇:[2023][欧美][剧情][WEB-4K]恶世之子[国语配音].To.Catch.a.Killer.2024.2160p.WEB-DL.H265.EDR.DDP5.1- 11.17GB
回复

使用道具 举报

您需要登录后才可以回帖 登录 | 立即注册

本版积分规则

Archiver|手机版|小众纪录片影视聚合

GMT+8, 2024-7-22 06:41 , Processed in 0.107517 second(s), 13 queries , Gzip On, Redis On.

Powered by 小众纪录片影视聚合 @2010-2023

Copyright © 2010-2024, https://www.xzjlp.com/.


免责说明:本站所有内容链接、图文介绍等均来自于互联网网友分享,本站仅支持web页面展示和文字介绍,绝不提供在线观看和存储服务,也不参与录制、上传、压片。若本站收录内容无意侵犯贵司版权,请发邮件到【a885185#163.com】联系本站,我们将在第一时间删除侵权内容。谢谢!

快速回复 返回顶部 返回列表