小众纪录片影视聚合

 找回密码
 立即注册
查看: 11|回复: 0

[蓝光电影] [2024][大陆][剧情][WEB-1080P]极速阻击[国语配音/中文字幕].To.the.Rescue.2024.1080p.WEB-DL.H265.DDP5.1- 2.89GB

[复制链接]

112万

主题

112万

帖子

112万

积分

超级版主

Rank: 8Rank: 8

积分
1128817
发表于 7 天前 | 显示全部楼层 |阅读模式


[2024][大陆][剧情][WEB-1080P]极速阻击[国语配音/中文字幕].To.the.Rescue.2024.1080p.WEB-DL.H265.DDP5.1- 2.89GB

完整标题:极速阻击[国语配音/中文字幕].To.the.Rescue.2024.1080p.WEB-DL.H265.DDP5.1-DreamHD 2.89GB
◎标  题 极速阻击
◎译  名 To The Rescue
◎年  代 2024
◎产  地 中国大陆
◎类  别 剧情 / 动作
◎语  言 汉语普通话
◎上映日期 2024-03-17(中国大陆)
◎IMDb链接 https://www.imdb.com/title//
◎豆瓣链接 https://movie.douban.com/subject/36789332/
◎片  长 104分钟
◎导  演 林育塘
◎编  剧 庄秦 Qin Zhuang
◎演  员 黄俊鹏 Junpeng Huang
       林静 Jing Lin
       陆恩馨 Enxin Lu
       王海祥 Haixiang Wang
       元武 Wu Yuan
       侯莹珏 Yingjue Hou
       楼学贤 Jackson Lau Hok-Yin
       刘亚津 Yajin Liu
       郭秋成 Qiucheng Guo
       李政宇 Zhengyu Li
◎简  介
    阻击病毒,人人有责。章轩女友刘茜意外坠海,留下疑云重重。章轩在寻找真相的过程中不慎卷入国际生物病毒组织,结识了同样受困的韩齐与科学家魏国强。三人联手化身正义与热血的战士,开启一段紧张刺激的极速阻击之旅
点击图片可查看大图
软字幕无法在截图上展现,HDR版本/杜比视界版本截图会出现颜色异常,请使用支持的设备播放!
##### MediaInfo ######
General
Unique ID                                : 211650563089238597166858948446122000540 (0x9F3A6A6CA0359CB9BA1FE5D55F71C09C)
Complete name                            : To.the.Rescue.2024.1080p.WEB-DL.H265.DDP5.1-DreamHD.mkv
Duration                                 : 1 h 44 min
Overall bit rate                         : 3 959 kb/s
Video
ID                                       : 1
Format                                   : HEVC
Format/Info                              : High Efficiency Video Coding
Format profile                           : Main@L4@Main
Codec ID                                 : V_MPEGH/ISO/HEVC
Duration                                 : 1 h 44 min
Bit rate                                 : 3 511 kb/s
Width                                    : 1 920 pixels
Height                                   : 800 pixels
Display aspect ratio                     : 2.40:1
Frame rate mode                          : Constant
Frame rate                               : 24.000 FPS
Color space                              : YUV
Chroma subsampling                       : 4:2:0
Bit depth                                : 8 bits
Bits/(Pixel*Frame)                       : 0.095
Stream size                              : 2.56 GiB (89%)
Default                                  : Yes
Forced                                   : No
Audio #1
ID                                       : 2
Format                                   : E-AC-3
Format/Info                              : Enhanced AC-3
Commercial name                          : Dolby Digital Plus
Codec ID                                 : A_EAC3
Duration                                 : 1 h 44 min
Bit rate mode                            : Constant
Bit rate                                 : 256 kb/s
Channel(s)                               : 6 channels
Channel layout                           : L R C LFE Ls Rs
Sampling rate                            : 48.0 kHz
Frame rate                               : 31.250 FPS (1536 SPF)
Compression mode                         : Lossy
Stream size                              : 191 MiB (6%)
Title                                    : Mandarin [DDP5.1]
Language                                 : Chinese
Service kind                             : Complete Main
Default                                  : Yes
Forced                                   : No
Audio #2
ID                                       : 3
Format                                   : AAC LC
Format/Info                              : Advanced Audio Codec Low Complexity
Codec ID                                 : A_AAC-2
Duration                                 : 1 h 44 min
Bit rate                                 : 192 kb/s
Channel(s)                               : 2 channels
Channel layout                           : L R
Sampling rate                            : 44.1 kHz
Frame rate                               : 43.066 FPS (1024 SPF)
Compression mode                         : Lossy
Stream size                              : 142 MiB (5%)
Title                                    : Mandarin [AAC2.0]
Language                                 : Chinese
Default                                  : No
Forced                                   : No
部分资源为软字幕,移动端推荐播放器:MxPlayer,nPlayer,infuse ,其他播放器请自行尝试。
部分资源为软字幕,电脑端推荐播放器:PotPlayer,完美解码,KMPLAYER,其他播放器请自行尝试。






~~~~~~~~~~~~~~~~~~~~~~~~~~~~~~~~~~~~~~~~~
[2024][大陆][剧情][WEB-1080P]极速阻击[国语配音/中文字幕].To.the.Rescue.2024.1080p.WEB-DL.H265.DDP5.1- 2.89GB

【文件列表】:


To.the.Rescue.2024.1080p.WEB-DL.H265.DDP5.1-DreamHD.



【下载地址列表】:


游客
文件下载链接就在这里,在您回复评论成功后才能显示。
请勿回复无意义的灌水内容。


下拉页面到最底部回复或者【点击此处快捷回复】,回复后返回此处即可查看下载链接。
如您没注册本站会员,可以点击注册本站,注册后即可回复下载。



软字幕无法在截图上展现,HDR版本/杜比视界版本截图会出现颜色异常,请使用支持的设备播放!






[img][/img]






[img][/img]

(HDR版本/杜比视界版本,截图会出现颜色异常,请使用支持的设备播放)

小贴士:【影视自媒体解说文案请移步:夏至文案解说网 www.xiazhi.vip

上一篇:[2023][欧美][剧情][WEB-4K]恶世之子[国语配音].To.Catch.a.Killer.2024.2160p.WEB-DL.H265.EDR.DDP5.1- 11.17GB
下一篇:[2024][大陆][剧情][WEB-4K]极速阻击[60帧率版本][国语配音/中文字幕].To.the.Rescue.2024.2160p.WEB-DL.H265.60fps.DDP5.1-DreamH
回复

使用道具 举报

您需要登录后才可以回帖 登录 | 立即注册

本版积分规则

Archiver|手机版|小众纪录片影视聚合

GMT+8, 2024-7-16 23:32 , Processed in 0.068501 second(s), 13 queries , Gzip On, Redis On.

Powered by 小众纪录片影视聚合 @2010-2023

Copyright © 2010-2024, https://www.xzjlp.com/.


免责说明:本站所有内容链接、图文介绍等均来自于互联网网友分享,本站仅支持web页面展示和文字介绍,绝不提供在线观看和存储服务,也不参与录制、上传、压片。若本站收录内容无意侵犯贵司版权,请发邮件到【a885185#163.com】联系本站,我们将在第一时间删除侵权内容。谢谢!

快速回复 返回顶部 返回列表