小众纪录片影视聚合

 找回密码
 立即注册
查看: 8|回复: 0

[蓝光电影] [更 早][大陆][剧情][BD-1080P]大红灯笼高高挂[国语音轨/简繁英字幕].Raise.the.Red.Lantern.1991.FRA.1080p.BluRay.x264.FLAC.2.0-SO

[复制链接]

113万

主题

113万

帖子

113万

积分

超级版主

Rank: 8Rank: 8

积分
1134576
发表于 2024-7-9 21:24:38 | 显示全部楼层 |阅读模式


[更 早][大陆][剧情][BD-1080P]大红灯笼高高挂[国语音轨/简繁英字幕].Raise.the.Red.Lantern.1991.FRA.1080p.BluRay.x264.FLAC.2.0-SO

完整标题:大红灯笼高高挂[国语音轨/简繁英字幕].Raise.the.Red.Lantern.1991.FRA.1080p.BluRay.x264.FLAC.2.0-SONYHD 10.01GB
◎标  题 大红灯笼高高挂
◎译  名 Raise The Red Lantern / Épouses et concubines
◎年  代 1991
◎产  地 中国大陆 / 中国香港 / 中国台湾
◎类  别 剧情
◎语  言 汉语普通话
◎上映日期 1991-09-10(威尼斯电影节 / 多伦多电影节)
◎IMDb评分 8.1/10 (34740人评价)
◎IMDb链接 https://www.imdb.com/title/tt0101640/
◎豆瓣评分 8.8/10 (285054人评价)
◎豆瓣链接 https://movie.douban.com/subject/1293323/
◎片  长 125 分钟
◎导  演 张艺谋 Yimou Zhang
◎编  剧 倪震 Zhen Ni
       苏童 Tong  Su
◎演  员 巩俐 Li Gong
       马精武 Jingwu Ma
       何赛飞 Saifei He
       曹翠芬 Cuifen Cao
       周琦 Qi Zhou
       孔琳 Lin Kong
       金淑媛 Shuyuan Jin
       丁惟敏 Weimin Ding
       初晓 Xiao Chu
       徐薇 Wei Xu
       曹增银 Zengyin Cao
       崔志刚 Zhigang Cui
◎简  介
    大学刚读半年的颂莲(巩俐)被贪钱的母亲逼迫着嫁进陈家大院,成了老爷的第四房姨太。陈府有老规矩,姨太太们傍晚时分要站在自已的屋子前,等待下人送来的意味被老爷“临幸”的大红灯笼。                                    起初因为“新人”身份,颂莲得到老爷最多宠幸,但也因此被其它三位姨太太尤其笑里藏刀的二姨太(曹翠芬)挤兑得叫苦不迭。因为涉世不深,生性反叛好强的颂莲急欲争一口气,使计又成老爷身边红人,不想计被看穿,终败于二姨太手下酿成悲剧。而三姨太(何赛飞)的经历虽与颂莲迥异,却也殊途同归逃不出宿命。
点击图片可查看大图
软字幕无法在截图上展现,HDR版本/杜比视界版本截图会出现颜色异常,请使用支持的设备播放!
##### MediaInfo ######
General
Unique ID                                : 48626686442214985818956417702247956514 (0x249528BE27BF65DFBB7BFC30508A8022)
Complete name                            : Raise.the.Red.Lantern.1991.FRA.1080p.BluRay.x264.FLAC.2.0-SONYHD.mkv
Duration                                 : 2 h 4 min
Overall bit rate mode                    : Variable
Overall bit rate                         : 11.5 Mb/s
Video
ID                                       : 1
Format                                   : AVC
Format/Info                              : Advanced Video Codec
Format profile                           : [email protected]
Format settings                          : CABAC / 4 Ref Frames
Format settings, CABAC                   : Yes
Format settings, Reference frames        : 4 frames
Codec ID                                 : V_MPEG4/ISO/AVC
Duration                                 : 2 h 4 min
Bit rate                                 : 11.0 Mb/s
Width                                    : 1 916 pixels
Height                                   : 1 020 pixels
Display aspect ratio                     : 1.85:1
Frame rate mode                          : Constant
Frame rate                               : 24.000 FPS
Color space                              : YUV
Chroma subsampling                       : 4:2:0
Bit depth                                : 8 bits
Scan type                                : Progressive
Bits/(Pixel*Frame)                       : 0.234
Stream size                              : 9.57 GiB (96%)
Writing library                          : x264 core 164 r3085+55M 938b6d0 t_mod_New [(8 & 10)-bit@all X86_64]
Encoding settings                        : cabac=1 / ref=4 / deblock=1:-3:-3 / analyse=0x3:0x133 / me=umh / subme=11 / psy=1 / fade_compensate=0.00 / psy_rd=1.00:0.00 / mixed_ref=1 / me_range=48 / chroma_me=1 / trellis=2 / 8x8dct=1 / cqm=0 / deadzone=21,11 / fast_pskip=0 / chroma_qp_offset=-3 / threads=30 / lookahead_threads=7 / sliced_threads=0 / nr=0 / decimate=0 / interlaced=0 / bluray_compat=0 / constrained_intra=0 / fgo=0 / bframes=11 / b_pyramid=2 / b_adapt=2 / b_bias=0 / direct=3 / weightb=1 / open_gop=0 / weightp=2 / keyint=240 / keyint_min=1 / scenecut=40 / intra_refresh=0 / rc_lookahead=72 / rc=crf / mbtree=0 / crf=19.4900 / qcomp=0.60 / qpmin=0:0:0 / qpmax=69:69:69 / qpstep=4 / vbv_maxrate=62500 / vbv_bufsize=78125 / crf_max=0.0 / nal_hrd=none / filler=0 / ip_ratio=1.40 / pb_ratio=1.30 / aq=3:0.70 / aq-sensitivity=10.00 / aq-factor=1.00:1.00:1.00 / aq2=0 / aq3=0
Default                                  : Yes
Forced                                   : No
Audio
ID                                       : 2
Format                                   : FLAC
Format/Info                              : Free Lossless Audio Codec
Codec ID                                 : A_FLAC
Duration                                 : 2 h 4 min
Bit rate mode                            : Variable
Bit rate                                 : 464 kb/s
Channel(s)                               : 2 channels
Channel layout                           : L R
Sampling rate                            : 48.0 kHz
Frame rate                               : 11.719 FPS (4096 SPF)
Bit depth                                : 16 bits
Compression mode                         : Lossless
Stream size                              : 414 MiB (4%)
Title                                    : Chinese
Writing library                          : libFLAC 1.2.1 (UTC 2007-09-17)
Language                                 : Chinese
Default                                  : Yes
Forced                                   : No
Text #1
ID                                       : 3
ID in the original source medium         : 4609 (0x1201)
Format                                   : PGS
Muxing mode                              : zlib
Codec ID                                 : S_HDMV/PGS
Codec ID/Info                            : Picture based subtitle format used on BDs/HD-DVDs
Duration                                 : 2 h 0 min
Bit rate                                 : 25.8 kb/s
Frame rate                               : 0.254 FPS
Count of elements                        : 1834
Stream size                              : 22.3 MiB (0%)
Title                                    : chs&eng
Language                                 : Chinese
Default                                  : Yes
Forced                                   : No
Original source medium                   : Blu-ray
Text #2
ID                                       : 4
ID in the original source medium         : 4610 (0x1202)
Format                                   : PGS
Muxing mode                              : zlib
Codec ID                                 : S_HDMV/PGS
Codec ID/Info                            : Picture based subtitle format used on BDs/HD-DVDs
Duration                                 : 2 h 0 min
Bit rate                                 : 25.9 kb/s
Frame rate                               : 0.254 FPS
Count of elements                        : 1834
Stream size                              : 22.4 MiB (0%)
Title                                    : cht&eng
Language                                 : Chinese
Default                                  : No
Forced                                   : No
Original source medium                   : Blu-ray
Text #3
ID                                       : 5
ID in the original source medium         : 4611 (0x1203)
Format                                   : PGS
Muxing mode                              : zlib
Codec ID                                 : S_HDMV/PGS
Codec ID/Info                            : Picture based subtitle format used on BDs/HD-DVDs
Duration                                 : 2 h 0 min
Bit rate                                 : 14.4 kb/s
Frame rate                               : 0.254 FPS
Count of elements                        : 1834
Stream size                              : 12.4 MiB (0%)
Title                                    : chs
Language                                 : Chinese
Default                                  : No
Forced                                   : No
Original source medium                   : Blu-ray
Text #4
ID                                       : 6
ID in the original source medium         : 4612 (0x1204)
Format                                   : PGS
Muxing mode                              : zlib
Codec ID                                 : S_HDMV/PGS
Codec ID/Info                            : Picture based subtitle format used on BDs/HD-DVDs
Duration                                 : 2 h 0 min
Bit rate                                 : 14.6 kb/s
Frame rate                               : 0.254 FPS
Count of elements                        : 1834
Stream size                              : 12.5 MiB (0%)
Title                                    : cht
Language                                 : Chinese
Default                                  : No
Forced                                   : No
Original source medium                   : Blu-ray
Text #5
ID                                       : 7
ID in the original source medium         : 4613 (0x1205)
Format                                   : PGS
Muxing mode                              : zlib
Codec ID                                 : S_HDMV/PGS
Codec ID/Info                            : Picture based subtitle format used on BDs/HD-DVDs
Duration                                 : 2 h 0 min
Bit rate                                 : 13.1 kb/s
Frame rate                               : 0.254 FPS
Count of elements                        : 1834
Stream size                              : 11.3 MiB (0%)
Title                                    : eng
Language                                 : English
Default                                  : No
Forced                                   : No
Original source medium                   : Blu-ray
Menu
00:00:00.000                             : en:Chapter 01
00:10:53.333                             : en:Chapter 02
00:16:05.291                             : en:Chapter 03
00:22:49.208                             : en:Chapter 04
00:27:45.291                             : en:Chapter 05
00:35:41.041                             : en:Chapter 06
00:42:20.416                             : en:Chapter 07
00:48:34.291                             : en:Chapter 08
00:55:47.041                             : en:Chapter 09
01:06:20.041                             : en:Chapter 10
01:12:40.000                             : en:Chapter 11
01:20:55.500                             : en:Chapter 12
01:29:47.041                             : en:Chapter 13
01:37:13.000                             : en:Chapter 14
01:43:28.416                             : en:Chapter 15
01:49:59.875                             : en:Chapter 16
01:55:18.250                             : en:Chapter 17
02:01:53.125                             : en:Chapter 18
部分资源为软字幕,移动端推荐播放器:MxPlayer,nPlayer,infuse ,其他播放器请自行尝试。
部分资源为软字幕,电脑端推荐播放器:PotPlayer,完美解码,KMPLAYER,其他播放器请自行尝试。






~~~~~~~~~~~~~~~~~~~~~~~~~~~~~~~~~~~~~~~~~
[更 早][大陆][剧情][BD-1080P]大红灯笼高高挂[国语音轨/简繁英字幕].Raise.the.Red.Lantern.1991.FRA.1080p.BluRay.x264.FLAC.2.0-SO

【文件列表】:


Raise.the.Red.Lantern.1991.FRA.1080p.BluRay.x264.FLAC.2.0-SONYHD.



【下载地址列表】:


游客
文件下载链接就在这里,在您回复评论成功后才能显示。
请勿回复无意义的灌水内容。


下拉页面到最底部回复或者【点击此处快捷回复】,回复后返回此处即可查看下载链接。
如您没注册本站会员,可以点击注册本站,注册后即可回复下载。



软字幕无法在截图上展现,HDR版本/杜比视界版本截图会出现颜色异常,请使用支持的设备播放!






[img][/img]






[img][/img]

(HDR版本/杜比视界版本,截图会出现颜色异常,请使用支持的设备播放)

小贴士:【影视自媒体解说文案请移步:夏至文案解说网 www.xiazhi.vip

上一篇:[2024][大陆][剧情][WEB-4K]极速阻击[60帧率版本][国语配音/中文字幕].To.the.Rescue.2024.2160p.WEB-DL.H265.60fps.DDP5.1-DreamH
下一篇:[更 早][大陆][剧情][BD-1080P]大红灯笼高高挂[国语音轨/简繁英字幕].Raise.the.Red.Lantern.1991.FRA.1080p.BluRay.x265.10bit.FLAC.
回复

使用道具 举报

您需要登录后才可以回帖 登录 | 立即注册

本版积分规则

Archiver|手机版|小众纪录片影视聚合

GMT+8, 2024-7-22 06:19 , Processed in 0.108705 second(s), 13 queries , Gzip On, Redis On.

Powered by 小众纪录片影视聚合 @2010-2023

Copyright © 2010-2024, https://www.xzjlp.com/.


免责说明:本站所有内容链接、图文介绍等均来自于互联网网友分享,本站仅支持web页面展示和文字介绍,绝不提供在线观看和存储服务,也不参与录制、上传、压片。若本站收录内容无意侵犯贵司版权,请发邮件到【a885185#163.com】联系本站,我们将在第一时间删除侵权内容。谢谢!

快速回复 返回顶部 返回列表