小众纪录片影视聚合

 找回密码
 立即注册
查看: 5|回复: 0

[蓝光电影] [2006][大陆][剧情][WEB-1080P]满城尽带黄金甲[国语音轨/简繁英字幕].Curse.of.the.Golden.Flower.2006.1080p.iTunes.WEB-DL.DD5.1.H2

[复制链接]

116万

主题

116万

帖子

116万

积分

超级版主

Rank: 8Rank: 8

积分
1167997
发表于 2024-7-9 21:25:11 | 显示全部楼层 |阅读模式


[2006][大陆][剧情][WEB-1080P]满城尽带黄金甲[国语音轨/简繁英字幕].Curse.of.the.Golden.Flower.2006.1080p.iTunes.WEB-DL.DD5.1.H2

完整标题:满城尽带黄金甲[国语音轨/简繁英字幕].Curse.of.the.Golden.Flower.2006.1080p.iTunes.WEB-DL.DD5.1.H264-BATWEB 8.12GB
◎标  题 满城尽带黄金甲
◎译  名 Curse of the Golden Flower
◎年  代 2006
◎产  地 中国大陆 / 中国香港
◎类  别 剧情 / 动作 / 爱情 / 古装
◎语  言 汉语普通话
◎上映日期 2006-12-14(中国大陆) / 2006-12-21(中国香港)
◎IMDb评分 7/10 (44866人评价)
◎IMDb链接 https://www.imdb.com/title/tt0473444/
◎豆瓣评分 5.8/10 (251266人评价)
◎豆瓣链接 https://movie.douban.com/subject/1499008/
◎片  长 114分钟
◎导  演 张艺谋 Yimou Zhang
◎编  剧 张艺谋 Yimou Zhang
       吴楠 Nan Wu
       卞智洪 Zhihong Bian
       曹禺 Yu Cao
◎演  员 周润发 Yun-Fat Chow
       巩俐 Li Gong
       周杰伦 Jay Chou
       刘烨 Ye Liu
       陈瑾 Jin Chen
       倪大红 Dahong Ni
       李曼 Man Li
       秦俊杰 Junjie Qin
       郭常辉 Changhui Guo
       李鸣 Ming Li
       马天宇 Ray Ma
       张天爱 Tian'ai Zhang
       封柏 Bai Feng
       赵梦恬 Mengtian Zhao
       张伸 Shen Zhang
       于卓 Zhuo Yu
       杜莹 Du Ying
◎简  介
    王(周润发 饰)领兵造反,夺得了王位。他为了更加巩固自己的地位,赶走了前妻,迎娶了梁国的公主、现任王后(巩俐 饰),以得到梁王的支持。王子元祥(刘烨 饰)是前妻留下的孩子,王跟现任王后也生下了元杰(周杰伦 饰)、元成(秦俊杰 饰)。王后却与元祥有着不可告人的乱伦关系,王一直念念不忘自己的前妻,对外声称前妻已死。王后一直野心勃勃,元杰得知父亲逼着母亲吃毒药,就答应了母亲在重阳节的那天发起兵变,腥风血雨的战争也开始了……
点击图片可查看大图
软字幕无法在截图上展现,HDR版本/杜比视界版本截图会出现颜色异常,请使用支持的设备播放!
##### MediaInfo ######
General
Unique ID                                : 310370622882327461089230464273646143134 (0xE97F352855DC608E29240E2BBAFCC69E)
Complete name                            : Curse.of.the.Golden.Flower.2006.1080p.iTunes.WEB-DL.DD5.1.H264-BATWEB.mkv
Duration                                 : 1 h 53 min
Overall bit rate                         : 10.2 Mb/s
Video
ID                                       : 1
Format                                   : AVC
Format/Info                              : Advanced Video Codec
Format profile                           : High@L4
Format settings                          : CABAC / 5 Ref Frames
Format settings, CABAC                   : Yes
Format settings, Reference frames        : 5 frames
Codec ID                                 : V_MPEG4/ISO/AVC
Duration                                 : 1 h 53 min
Bit rate                                 : 9 852 kb/s
Width                                    : 1 920 pixels
Height                                   : 816 pixels
Display aspect ratio                     : 2.35:1
Frame rate mode                          : Constant
Frame rate                               : 24.000 FPS
Color space                              : YUV
Chroma subsampling                       : 4:2:0
Bit depth                                : 8 bits
Scan type                                : Progressive
Bits/(Pixel*Frame)                       : 0.262
Stream size                              : 7.81 GiB (96%)
Default                                  : Yes
Forced                                   : No
Color range                              : Limited
Color primaries                          : BT.709
Transfer characteristics                 : BT.709
Matrix coefficients                      : BT.709
Audio
ID                                       : 2
Format                                   : AC-3
Format/Info                              : Audio Coding 3
Commercial name                          : Dolby Digital
Codec ID                                 : A_AC3
Duration                                 : 1 h 53 min
Bit rate mode                            : Constant
Bit rate                                 : 384 kb/s
Channel(s)                               : 6 channels
Channel layout                           : L R C LFE Ls Rs
Sampling rate                            : 48.0 kHz
Frame rate                               : 31.250 FPS (1536 SPF)
Compression mode                         : Lossy
Stream size                              : 312 MiB (4%)
Title                                    : 中文 [Dolby Digital 5.1]
Language                                 : Chinese
Service kind                             : Complete Main
Default                                  : No
Forced                                   : No
Text #1
ID                                       : 3
Format                                   : UTF-8
Codec ID                                 : S_TEXT/UTF8
Codec ID/Info                            : UTF-8 Plain Text
Duration                                 : 1 h 51 min
Bit rate                                 : 17 b/s
Frame rate                               : 0.133 FPS
Count of elements                        : 888
Stream size                              : 13.9 KiB (0%)
Title                                    : 粵語 (繁體)
Language                                 : Chinese
Default                                  : Yes
Forced                                   : No
Text #2
ID                                       : 4
Format                                   : UTF-8
Codec ID                                 : S_TEXT/UTF8
Codec ID/Info                            : UTF-8 Plain Text
Duration                                 : 1 h 51 min
Bit rate                                 : 27 b/s
Frame rate                               : 0.132 FPS
Count of elements                        : 878
Stream size                              : 22.2 KiB (0%)
Title                                    : English
Language                                 : English
Default                                  : No
Forced                                   : No
Text #3
ID                                       : 5
Format                                   : UTF-8
Codec ID                                 : S_TEXT/UTF8
Codec ID/Info                            : UTF-8 Plain Text
Duration                                 : 1 h 51 min
Bit rate                                 : 17 b/s
Frame rate                               : 0.133 FPS
Count of elements                        : 888
Stream size                              : 13.9 KiB (0%)
Title                                    : 粤语(简体)
Language                                 : Chinese
Default                                  : No
Forced                                   : No
部分资源为软字幕,移动端推荐播放器:MxPlayer,nPlayer,infuse ,其他播放器请自行尝试。
部分资源为软字幕,电脑端推荐播放器:PotPlayer,完美解码,KMPLAYER,其他播放器请自行尝试。






~~~~~~~~~~~~~~~~~~~~~~~~~~~~~~~~~~~~~~~~~
[2006][大陆][剧情][WEB-1080P]满城尽带黄金甲[国语音轨/简繁英字幕].Curse.of.the.Golden.Flower.2006.1080p.iTunes.WEB-DL.DD5.1.H2

【文件列表】:


Curse.of.the.Golden.Flower.2006.1080p.iTunes.WEB-DL.DD5.1.H264-BATWEB.



【下载地址列表】:


游客
文件下载链接就在这里,在您回复评论成功后才能显示。
请勿回复无意义的灌水内容。


下拉页面到最底部回复或者【点击此处快捷回复】,回复后返回此处即可查看下载链接。
如您没注册本站会员,可以点击注册本站,注册后即可回复下载。



软字幕无法在截图上展现,HDR版本/杜比视界版本截图会出现颜色异常,请使用支持的设备播放!






[img][/img]






[img][/img]

(HDR版本/杜比视界版本,截图会出现颜色异常,请使用支持的设备播放)

小贴士:【影视自媒体解说文案请移步:夏至文案解说网 www.xiazhi.vip

上一篇:[2023][其它][惊悚][WEB-4K]皇家酒店[无字片源].The.Royal.Hotel.2023.2160p.Hulu.WEB-DL.DDP.5.1.H.265- 7.36GB
下一篇:[2008][其它][剧情][WEB-1080P]爱情三选一[简繁英字幕].Definitely.Maybe.2008.1080p.iTunes.WEB-DL.DD5.1.H264- 5.11GB
回复

使用道具 举报

您需要登录后才可以回帖 登录 | 立即注册

本版积分规则

Archiver|手机版|小众纪录片影视聚合

GMT+8, 2024-7-25 02:09 , Processed in 0.125658 second(s), 12 queries , Gzip On, Redis On.

Powered by 小众纪录片影视聚合 @2010-2023

Copyright © 2010-2024, https://www.xzjlp.com/.


免责说明:本站所有内容链接、图文介绍等均来自于互联网网友分享,本站仅支持web页面展示和文字介绍,绝不提供在线观看和存储服务,也不参与录制、上传、压片。若本站收录内容无意侵犯贵司版权,请发邮件到【a885185#163.com】联系本站,我们将在第一时间删除侵权内容。谢谢!

快速回复 返回顶部 返回列表