小众纪录片影视聚合

 找回密码
 立即注册
查看: 8|回复: 0

[蓝光电影] [2023][欧美][动作][WEB-1080P]敢死队4:最终章[中文字幕].Expend4bles.2023.1080p.MyVideo.WEB-DL.AAC.2.0.H.264- 3.36G

[复制链接]

113万

主题

113万

帖子

113万

积分

超级版主

Rank: 8Rank: 8

积分
1134020
发表于 2024-7-9 21:25:17 | 显示全部楼层 |阅读模式


[2023][欧美][动作][WEB-1080P]敢死队4:最终章[中文字幕].Expend4bles.2023.1080p.MyVideo.WEB-DL.AAC.2.0.H.264- 3.36G

完整标题:敢死队4:最终章[中文字幕].Expend4bles.2023.1080p.MyVideo.WEB-DL.AAC.2.0.H.264-DreamHD 3.36GB
◎标  题 敢死队4:最终章
◎译  名 敢死队4 / 浴血任务4(台) / 轰天猛将4(港) / The Expendables 4
◎片  名 Expend4bles
◎年  代 2023
◎产  地 美国
◎类  别 动作 / 惊悚 / 战争 / 冒险
◎语  言 英语
◎上映日期 2023-09-15(中国大陆) / 2023-09-22(美国)
◎IMDb评分 4.8/10 (29285人评价)
◎IMDb链接 https://www.imdb.com/title/tt3291150/
◎豆瓣评分 4.8/10 (34119人评价)
◎豆瓣链接 https://movie.douban.com/subject/25845297/
◎片  长 103分钟 / 101分钟(中国大陆)
◎导  演 斯科特·沃 Scott Waugh
◎编  剧 科特·维莫 Kurt Wimmer
       泰德·达格哈特 Tad Daggerhart
       麦克斯·亚当斯 Max Adams
       斯宾塞·科恩 Spenser Cohen
       戴夫·卡拉汉姆 Dave Callaham
       格雷戈里·波伊莱尔 Gregory Poirier
◎演  员 杰森·斯坦森 Jason Statham
       50分 50 Cent
       梅根·福克斯 Megan Fox
       杜夫·龙格尔 Dolph Lundgren
       托尼·贾 Tony Jaa
       伊科·乌艾斯 Iko Uwais
       安迪·加西亚 Andy Garcia
       西尔维斯特·史泰龙 Sylvester Stallone
       兰迪·库卓 Randy Couture
       雅各布·西皮奥 Jacob Scipio
       丽维·陈 Levy Tran
       露西·纽曼·威廉姆斯 Lucy Newman-Williams
       达伦·诺普 Daren Nop
       肯尼·巴特拉姆 Kenny 'Cowboy' Bartram
       科迪·麦基 Cody Mackie
       柯基·法尔考 Cokey Falkow
       丹楚朋 Dan Chupong
       卡里姆·赛迪 Karim Saidi
       塞缪尔·布莱克 Samuel Black
       亚当·马斯托 Adam Masto
       妮可·安德鲁斯 Nicole Andrews
       希拉·沙赫 Sheila Shah
       迈克·莫勒 Mike Möller
       杰森· 莱恩斯 Jason Lines
       提萨·佩尔科 Tjasa Perko
◎简  介
    聚焦一群资深雇佣兵的故事。讲述了敢死小队最后一次集结,登上外海一艘满载核弹的货轮,开展一场阻止巨轮核弹爆炸的惊天行动。
点击图片可查看大图
软字幕无法在截图上展现,HDR版本/杜比视界版本截图会出现颜色异常,请使用支持的设备播放!
##### MediaInfo ######
General
Unique ID                                : 209931698570303609941870921800252306259 (0x9DEF5FDC4CD14DE2A699CFD6D762B353)
Complete name                            : Expend4bles.2023.1080p.MyVideo.WEB-DL.AAC.2.0.H.264-DreamHD.mkv
Duration                                 : 1 h 43 min
Overall bit rate                         : 4 672 kb/s
Video
ID                                       : 1
Format                                   : AVC
Format/Info                              : Advanced Video Codec
Format profile                           : Main@L4
Format settings                          : CABAC / 1 Ref Frames
Format settings, CABAC                   : Yes
Format settings, Reference frames        : 1 frame
Format settings, GOP                     : M=1, N=60
Codec ID                                 : V_MPEG4/ISO/AVC
Duration                                 : 1 h 43 min
Bit rate mode                            : Constant
Bit rate                                 : 4 500 kb/s
Width                                    : 1 920 pixels
Height                                   : 1 080 pixels
Display aspect ratio                     : 16:9
Frame rate mode                          : Constant
Frame rate                               : 24.000 FPS
Color space                              : YUV
Chroma subsampling                       : 4:2:0
Bit depth                                : 8 bits
Scan type                                : Progressive
Bits/(Pixel*Frame)                       : 0.090
Stream size                              : 3.22 GiB (96%)
Language                                 : English
Default                                  : Yes
Forced                                   : No
Audio
ID                                       : 2
Format                                   : AAC LC
Format/Info                              : Advanced Audio Codec Low Complexity
Codec ID                                 : A_AAC-2
Duration                                 : 1 h 43 min
Bit rate                                 : 192 kb/s
Channel(s)                               : 2 channels
Channel layout                           : L R
Sampling rate                            : 44.1 kHz
Frame rate                               : 43.066 FPS (1024 SPF)
Compression mode                         : Lossy
Stream size                              : 142 MiB (4%)
Language                                 : English
Default                                  : Yes
Forced                                   : No
部分资源为软字幕,移动端推荐播放器:MxPlayer,nPlayer,infuse ,其他播放器请自行尝试。
部分资源为软字幕,电脑端推荐播放器:PotPlayer,完美解码,KMPLAYER,其他播放器请自行尝试。






~~~~~~~~~~~~~~~~~~~~~~~~~~~~~~~~~~~~~~~~~
[2023][欧美][动作][WEB-1080P]敢死队4:最终章[中文字幕].Expend4bles.2023.1080p.MyVideo.WEB-DL.AAC.2.0.H.264- 3.36G

【文件列表】:


Expend4bles.2023.1080p.MyVideo.WEB-DL.AAC.2.0.H.264-DreamHD.



【下载地址列表】:


游客
文件下载链接就在这里,在您回复评论成功后才能显示。
请勿回复无意义的灌水内容。


下拉页面到最底部回复或者【点击此处快捷回复】,回复后返回此处即可查看下载链接。
如您没注册本站会员,可以点击注册本站,注册后即可回复下载。



软字幕无法在截图上展现,HDR版本/杜比视界版本截图会出现颜色异常,请使用支持的设备播放!






[img][/img]






[img][/img]

(HDR版本/杜比视界版本,截图会出现颜色异常,请使用支持的设备播放)

小贴士:【影视自媒体解说文案请移步:夏至文案解说网 www.xiazhi.vip

上一篇:[2008][其它][剧情][WEB-1080P]爱情三选一[简繁英字幕].Definitely.Maybe.2008.1080p.iTunes.WEB-DL.DD5.1.H264- 5.11GB
下一篇:[2023][欧美][动作][WEB-4K]敢死队4:最终章[中文字幕].Expend4bles.2023.2160p.MyVideo.WEB-DL.AAC.2.0.H.265- 11.11
回复

使用道具 举报

您需要登录后才可以回帖 登录 | 立即注册

本版积分规则

Archiver|手机版|小众纪录片影视聚合

GMT+8, 2024-7-20 17:01 , Processed in 0.071770 second(s), 12 queries , Gzip On, Redis On.

Powered by 小众纪录片影视聚合 @2010-2023

Copyright © 2010-2024, https://www.xzjlp.com/.


免责说明:本站所有内容链接、图文介绍等均来自于互联网网友分享,本站仅支持web页面展示和文字介绍,绝不提供在线观看和存储服务,也不参与录制、上传、压片。若本站收录内容无意侵犯贵司版权,请发邮件到【a885185#163.com】联系本站,我们将在第一时间删除侵权内容。谢谢!

快速回复 返回顶部 返回列表