小众纪录片影视聚合

 找回密码
 立即注册
查看: 7|回复: 0

[蓝光电影] [2010][欧美][惊悚][WEB-1080P]恋物[30帧率版本][中文字幕].Fetish.2008.1080p.Hami.WEB-DL.H264.AAC- 3.60GB

[复制链接]

113万

主题

113万

帖子

113万

积分

超级版主

Rank: 8Rank: 8

积分
1134446
发表于 2024-7-9 21:25:23 | 显示全部楼层 |阅读模式


[2010][欧美][惊悚][WEB-1080P]恋物[30帧率版本][中文字幕].Fetish.2008.1080p.Hami.WEB-DL.H264.AAC- 3.60GB

完整标题:恋物[30帧率版本][中文字幕].Fetish.2008.1080p.Hami.WEB-DL.H264.AAC-BATWEB 3.60GB
◎标  题 恋物
◎译  名 结婚 / Fetish / Make Yourself at Home
◎片  名 페티쉬
◎年  代 2010
◎产  地 美国 / 韩国
◎类  别 惊悚
◎语  言 英语 / 韩语
◎上映日期 2010-11-25
◎IMDb链接 https://www.imdb.com/title/tt1145152/
◎豆瓣评分 4.7/10 (5760人评价)
◎豆瓣链接 https://movie.douban.com/subject/3041201/
◎片  长 90
◎导  演 Soopum Sohn Soopum Sohn
◎编  剧 Soopum Sohn Soopum Sohn
◎演  员 宋慧乔 Hye-kyo Song
       亚诺·弗里斯奇 Arno Frisch
◎简  介
    在过去的韩国很多孩子被用来神婆祭祀,身子在坛子里被关着直到死去,而灵魂也被琐到铃铛里。当今的韩国也有很多神婆用铃铛来招魂,传说最有名的神婆都是哑巴,而淑熙(宋慧乔 Hye-kyo Song 饰)则生在这样一个世代都为神婆的名门家族。为了摆脱这种命运,她从神圣女子大学休学,通过相亲与从小生活在美国的皮特结婚,追随丈夫和婆婆远嫁到美国生活。初到异乡的淑熙努力适应着周围全新的环境,和家人一起信仰基督吃西餐。原以为这样就可以割舍神婆的命运,然而神婆的命运却依然紧紧的缠绕着她,母亲送给自己结婚礼物里竟然缝合着招魂的铃铛,丈夫和婆婆的相继离奇死亡再次点燃了已然成为孤身一人的她内心的欲望,她渐渐的迷恋上了了邻居约翰(亚诺•弗里斯奇 Arno Frisch 饰)和朱莉(阿瑟娜•库瑞 Athena Currey 饰)夫妇的生活,开始在生活的各个方面模仿女主人朱莉的举手投足,勾引她的丈夫约翰,诡异的气氛渐渐弥漫开来…
点击图片可查看大图
软字幕无法在截图上展现,HDR版本/杜比视界版本截图会出现颜色异常,请使用支持的设备播放!
##### MediaInfo ######
General
Unique ID                                : 335143356189689133819729027081075833486 (0xFC2243357B5098C984E3E19E4E363A8E)
Complete name                            : Fetish.2008.1080p.Hami.WEB-DL.H264.AAC-BATWEB.mkv
Duration                                 : 1 h 27 min
Overall bit rate                         : 5 902 kb/s
Video
ID                                       : 1
Format                                   : AVC
Format/Info                              : Advanced Video Codec
Format profile                           : High@L4
Format settings                          : CABAC / 3 Ref Frames
Format settings, CABAC                   : Yes
Format settings, Reference frames        : 3 frames
Format settings, GOP                     : M=1, N=30
Codec ID                                 : V_MPEG4/ISO/AVC
Duration                                 : 1 h 27 min
Bit rate                                 : 5 872 kb/s
Width                                    : 1 920 pixels
Height                                   : 1 080 pixels
Display aspect ratio                     : 16:9
Frame rate mode                          : Constant
Frame rate                               : 30.000 FPS
Color space                              : YUV
Chroma subsampling                       : 4:2:0
Bit depth                                : 8 bits
Scan type                                : Progressive
Bits/(Pixel*Frame)                       : 0.094
Stream size                              : 3.56 GiB (99%)
Writing library                          : x264 core 157 r2935 545de2f
Encoding settings                        : cabac=1 / ref=3 / deblock=1:0:0 / analyse=0x3:0x113 / me=hex / subme=7 / psy=1 / psy_rd=1.00:0.00 / mixed_ref=1 / me_range=16 / chroma_me=1 / trellis=1 / 8x8dct=1 / cqm=0 / deadzone=21,11 / fast_pskip=1 / chroma_qp_offset=-2 / threads=34 / lookahead_threads=5 / sliced_threads=0 / nr=0 / decimate=1 / interlaced=0 / bluray_compat=0 / constrained_intra=0 / bframes=0 / weightp=2 / keyint=30 / keyint_min=16 / scenecut=0 / intra_refresh=0 / rc_lookahead=30 / rc=abr / mbtree=1 / bitrate=5872 / ratetol=1.0 / qcomp=0.60 / qpmin=0 / qpmax=69 / qpstep=4 / vbv_maxrate=5900 / vbv_bufsize=5872 / nal_hrd=none / filler=0 / ip_ratio=1.40 / aq=1:1.00
Default                                  : Yes
Forced                                   : No
Audio
ID                                       : 2
Format                                   : AAC LC
Format/Info                              : Advanced Audio Codec Low Complexity
Codec ID                                 : A_AAC-2
Duration                                 : 1 h 27 min
Bit rate                                 : 64.4 kb/s
Channel(s)                               : 2 channels
Channel layout                           : L R
Sampling rate                            : 48.0 kHz
Frame rate                               : 46.875 FPS (1024 SPF)
Compression mode                         : Lossy
Stream size                              : 40.2 MiB (1%)
Default                                  : Yes
Forced                                   : No
部分资源为软字幕,移动端推荐播放器:MxPlayer,nPlayer,infuse ,其他播放器请自行尝试。
部分资源为软字幕,电脑端推荐播放器:PotPlayer,完美解码,KMPLAYER,其他播放器请自行尝试。






~~~~~~~~~~~~~~~~~~~~~~~~~~~~~~~~~~~~~~~~~
[2010][欧美][惊悚][WEB-1080P]恋物[30帧率版本][中文字幕].Fetish.2008.1080p.Hami.WEB-DL.H264.AAC- 3.60GB

【文件列表】:


Fetish.2008.1080p.Hami.WEB-DL.H264.AAC-BATWEB.



【下载地址列表】:


游客
文件下载链接就在这里,在您回复评论成功后才能显示。
请勿回复无意义的灌水内容。


下拉页面到最底部回复或者【点击此处快捷回复】,回复后返回此处即可查看下载链接。
如您没注册本站会员,可以点击注册本站,注册后即可回复下载。



软字幕无法在截图上展现,HDR版本/杜比视界版本截图会出现颜色异常,请使用支持的设备播放!






[img][/img]






[img][/img]

(HDR版本/杜比视界版本,截图会出现颜色异常,请使用支持的设备播放)

小贴士:【影视自媒体解说文案请移步:夏至文案解说网 www.xiazhi.vip

上一篇:[2023][欧美][动作][WEB-4K]敢死队4:最终章[中文字幕].Expend4bles.2023.2160p.MyVideo.WEB-DL.AAC.2.0.H.265- 11.11
下一篇:[2021][其它][惊悚][WEB-1080P]大白鲨之夺命鲨口[中文字幕].Great.White.2021.1080p.Hami.WEB-DL.H264.AAC- 3.66GB
回复

使用道具 举报

您需要登录后才可以回帖 登录 | 立即注册

本版积分规则

Archiver|手机版|小众纪录片影视聚合

GMT+8, 2024-7-22 05:52 , Processed in 0.065245 second(s), 13 queries , Gzip On, Redis On.

Powered by 小众纪录片影视聚合 @2010-2023

Copyright © 2010-2024, https://www.xzjlp.com/.


免责说明:本站所有内容链接、图文介绍等均来自于互联网网友分享,本站仅支持web页面展示和文字介绍,绝不提供在线观看和存储服务,也不参与录制、上传、压片。若本站收录内容无意侵犯贵司版权,请发邮件到【a885185#163.com】联系本站,我们将在第一时间删除侵权内容。谢谢!

快速回复 返回顶部 返回列表