小众纪录片影视聚合

 找回密码
 立即注册
查看: 3|回复: 0

[蓝光电影] [2024][欧美][动作][WEB-4K]新威龙杀阵[简繁英字幕].Road.House.2024.2160p.AMZN.WEB-DL.H265.HDR.DDP5.1- 13.22GB

[复制链接]

116万

主题

116万

帖子

116万

积分

超级版主

Rank: 8Rank: 8

积分
1167997
发表于 2024-7-9 21:25:30 | 显示全部楼层 |阅读模式


[2024][欧美][动作][WEB-4K]新威龙杀阵[简繁英字幕].Road.House.2024.2160p.AMZN.WEB-DL.H265.HDR.DDP5.1- 13.22GB

完整标题:新威龙杀阵[简繁英字幕].Road.House.2024.2160p.AMZN.WEB-DL.H265.HDR.DDP5.1-SONYHD 13.22GB
◎标  题 新威龙杀阵
◎译  名 威龙杀阵
◎片  名 Road House
◎年  代 2024
◎产  地 美国
◎类  别 动作 / 惊悚
◎语  言 英语
◎上映日期 2024-03-08(西南偏南电影节) / 2024-03-21(美国网络)
◎IMDb链接 https://www.imdb.com/title/tt3359350/
◎豆瓣链接 https://movie.douban.com/subject/26608246/
◎片  长 114分钟
◎导  演 道格·里曼 Doug Liman
◎编  剧 安东尼·巴格罗兹 Anthony Bagarozzi
       查克·蒙德里 Chuck Mondry
       大卫·李·亨利 David Lee Henry
       尼克·卡萨维蒂 Nick Cassavetes
       Cassie Pappas Cassie Pappas
◎演  员 杰克·吉伦哈尔 Jake Gyllenhaal
       康纳·麦格雷戈 Conor McGregor
       杰西卡·威廉姆斯 Jessica Williams
       比利·马格努森 Billy Magnussen
       丹妮拉·曼希沃 Daniela Melchior
       吉米索拉·艾库美罗 Gbemisola Ikumelo
       卢卡斯·盖奇 Lukas Gage
       特拉维斯·范·文克 Travis Van Winkle
       达伦·巴内特 Darren Barnet
       乔昆姆·德·阿尔梅达 Joaquim de Almeida
       J·D·普拉多 J.D. Pardo
       博·纳普 Beau Knapp
       阿图罗·卡斯特罗 Arturo Castro
       B·K·加农 B.K. Cannon
       凯文·卡罗尔 Kevin Carroll
       汉娜·洛夫·拉尼尔 Hannah Love Lanier
       杰伊·赫农 Jay Hieron
        Jonathan Kowalsky
        Catfish Jean
        Craig Ng
        Dominique Columbus
◎简  介
    故事围绕一名前UFC拳手(杰克·吉伦哈尔饰)展开,他在佛罗里达礁岛群一家满是牛鬼蛇神的酒吧担任保镖工作,但他很快发现,一切并非都像这个热带天堂一样美好。
点击图片可查看大图
软字幕无法在截图上展现,HDR版本/杜比视界版本截图会出现颜色异常,请使用支持的设备播放!
##### MediaInfo ######
General
Unique ID                                : 68107316396392505954994050917290779840 (0x333CFDF43BEED188FC795D87420CA4C0)
Complete name                            : Road.House.2024.2160p.AMZN.WEB-DL.H265.HDR.DDP5.1-SONYHD.mkv
Duration                                 : 2 h 3 min
Overall bit rate                         : 15.3 Mb/s
Video
ID                                       : 1
Format                                   : HEVC
Format/Info                              : High Efficiency Video Coding
Format profile                           : Main 10@L5@Main
HDR format                               : SMPTE ST 2094 App 4, Version 1, HDR10+ Profile B compatible
Codec ID                                 : V_MPEGH/ISO/HEVC
Duration                                 : 2 h 3 min
Bit rate                                 : 14.7 Mb/s
Width                                    : 3 840 pixels
Height                                   : 1 600 pixels
Display aspect ratio                     : 2.40:1
Frame rate mode                          : Constant
Frame rate                               : 23.976 (24000/1001) FPS
Color space                              : YUV
Chroma subsampling                       : 4:2:0
Bit depth                                : 10 bits
Bits/(Pixel*Frame)                       : 0.100
Stream size                              : 12.7 GiB (96%)
Default                                  : Yes
Forced                                   : No
Color range                              : Limited
Color primaries                          : BT.2020
Transfer characteristics                 : PQ
Matrix coefficients                      : BT.2020 non-constant
Mastering display color primaries        : Display P3
Mastering display luminance              : min: 0.0001 cd/m2, max: 1000 cd/m2
Maximum Content Light Level              : 785 cd/m2
Maximum Frame-Average Light Level        : 285 cd/m2
Audio
ID                                       : 2
Format                                   : E-AC-3
Format/Info                              : Enhanced AC-3
Commercial name                          : Dolby Digital Plus
Codec ID                                 : A_EAC3
Duration                                 : 2 h 3 min
Bit rate mode                            : Constant
Bit rate                                 : 640 kb/s
Channel(s)                               : 6 channels
Channel layout                           : L R C LFE Ls Rs
Sampling rate                            : 48.0 kHz
Frame rate                               : 31.250 FPS (1536 SPF)
Compression mode                         : Lossy
Stream size                              : 565 MiB (4%)
Language                                 : English
Service kind                             : Complete Main
Default                                  : Yes
Forced                                   : No
Text #1
ID                                       : 3
Format                                   : UTF-8
Codec ID                                 : S_TEXT/UTF8
Codec ID/Info                            : UTF-8 Plain Text
Duration                                 : 2 h 0 min
Bit rate                                 : 88 b/s
Frame rate                               : 0.214 FPS
Count of elements                        : 1548
Stream size                              : 78.1 KiB (0%)
Language                                 : Arabic
Default                                  : No
Forced                                   : No
Text #2
ID                                       : 4
Format                                   : UTF-8
Codec ID                                 : S_TEXT/UTF8
Codec ID/Info                            : UTF-8 Plain Text
Duration                                 : 2 h 0 min
Bit rate                                 : 41 b/s
Frame rate                               : 0.201 FPS
Count of elements                        : 1449
Stream size                              : 36.2 KiB (0%)
Title                                    : European
Language                                 : Catalan
Default                                  : No
Forced                                   : No
Text #3
ID                                       : 5
Format                                   : UTF-8
Codec ID                                 : S_TEXT/UTF8
Codec ID/Info                            : UTF-8 Plain Text
Duration                                 : 2 h 0 min
Bit rate                                 : 44 b/s
Frame rate                               : 0.202 FPS
Count of elements                        : 1461
Stream size                              : 39.4 KiB (0%)
Language                                 : Czech
Default                                  : No
Forced                                   : No
Text #4
ID                                       : 6
Format                                   : UTF-8
Codec ID                                 : S_TEXT/UTF8
Codec ID/Info                            : UTF-8 Plain Text
Duration                                 : 2 h 0 min
Bit rate                                 : 42 b/s
Frame rate                               : 0.214 FPS
Count of elements                        : 1542
Stream size                              : 37.5 KiB (0%)
Language                                 : Danish
Default                                  : No
Forced                                   : No
Text #5
ID                                       : 7
Format                                   : UTF-8
Codec ID                                 : S_TEXT/UTF8
Codec ID/Info                            : UTF-8 Plain Text
Duration                                 : 2 h 0 min
Bit rate                                 : 42 b/s
Frame rate                               : 0.201 FPS
Count of elements                        : 1452
Stream size                              : 37.5 KiB (0%)
Language                                 : German
Default                                  : No
Forced                                   : No
Text #6
ID                                       : 8
Format                                   : UTF-8
Codec ID                                 : S_TEXT/UTF8
Codec ID/Info                            : UTF-8 Plain Text
Duration                                 : 2 h 0 min
Bit rate                                 : 83 b/s
Frame rate                               : 0.210 FPS
Count of elements                        : 1517
Stream size                              : 73.7 KiB (0%)
Language                                 : Greek
Default                                  : No
Forced                                   : No
Text #7
ID                                       : 9
Format                                   : UTF-8
Codec ID                                 : S_TEXT/UTF8
Codec ID/Info                            : UTF-8 Plain Text
Duration                                 : 1 h 54 min
Bit rate                                 : 62 b/s
Frame rate                               : 0.267 FPS
Count of elements                        : 1832
Stream size                              : 51.9 KiB (0%)
Title                                    : SDH
Language                                 : English
Default                                  : No
Forced                                   : No
Text #8
ID                                       : 10
Format                                   : UTF-8
Codec ID                                 : S_TEXT/UTF8
Codec ID/Info                            : UTF-8 Plain Text
Duration                                 : 2 h 0 min
Bit rate                                 : 42 b/s
Frame rate                               : 0.203 FPS
Count of elements                        : 1467
Stream size                              : 37.2 KiB (0%)
Title                                    : Latin American
Language                                 : Spanish
Default                                  : No
Forced                                   : No
Text #9
ID                                       : 11
Format                                   : UTF-8
Codec ID                                 : S_TEXT/UTF8
Codec ID/Info                            : UTF-8 Plain Text
Duration                                 : 2 h 0 min
Bit rate                                 : 42 b/s
Frame rate                               : 0.203 FPS
Count of elements                        : 1464
Stream size                              : 37.8 KiB (0%)
Title                                    : European
Language                                 : Spanish
Default                                  : No
Forced                                   : No
Text #10
ID                                       : 12
Format                                   : UTF-8
Codec ID                                 : S_TEXT/UTF8
Codec ID/Info                            : UTF-8 Plain Text
Duration                                 : 2 h 0 min
Bit rate                                 : 40 b/s
Frame rate                               : 0.203 FPS
Count of elements                        : 1466
Stream size                              : 35.6 KiB (0%)
Title                                    : European
Language                                 : Basque
Default                                  : No
Forced                                   : No
Text #11
ID                                       : 13
Format                                   : UTF-8
Codec ID                                 : S_TEXT/UTF8
Codec ID/Info                            : UTF-8 Plain Text
Duration                                 : 2 h 0 min
Bit rate                                 : 39 b/s
Frame rate                               : 0.203 FPS
Count of elements                        : 1465
Stream size                              : 34.8 KiB (0%)
Language                                 : Finnish
Default                                  : No
Forced                                   : No
Text #12
ID                                       : 14
Format                                   : UTF-8
Codec ID                                 : S_TEXT/UTF8
Codec ID/Info                            : UTF-8 Plain Text
Duration                                 : 2 h 0 min
Bit rate                                 : 47 b/s
Frame rate                               : 0.214 FPS
Count of elements                        : 1547
Stream size                              : 41.9 KiB (0%)
Title                                    : Canadian
Language                                 : French
Default                                  : No
Forced                                   : No
Text #13
ID                                       : 15
Format                                   : UTF-8
Codec ID                                 : S_TEXT/UTF8
Codec ID/Info                            : UTF-8 Plain Text
Duration                                 : 2 h 0 min
Bit rate                                 : 41 b/s
Frame rate                               : 0.199 FPS
Count of elements                        : 1440
Stream size                              : 36.2 KiB (0%)
Title                                    : European
Language                                 : French
Default                                  : No
Forced                                   : No
Text #14
ID                                       : 16
Format                                   : UTF-8
Codec ID                                 : S_TEXT/UTF8
Codec ID/Info                            : UTF-8 Plain Text
Duration                                 : 2 h 0 min
Bit rate                                 : 40 b/s
Frame rate                               : 0.202 FPS
Count of elements                        : 1461
Stream size                              : 35.7 KiB (0%)
Title                                    : European
Language                                 : Galician
Default                                  : No
Forced                                   : No
Text #15
ID                                       : 17
Format                                   : UTF-8
Codec ID                                 : S_TEXT/UTF8
Codec ID/Info                            : UTF-8 Plain Text
Duration                                 : 2 h 0 min
Bit rate                                 : 73 b/s
Frame rate                               : 0.204 FPS
Count of elements                        : 1470
Stream size                              : 65.1 KiB (0%)
Language                                 : Hebrew
Default                                  : No
Forced                                   : No
Text #16
ID                                       : 18
Format                                   : UTF-8
Codec ID                                 : S_TEXT/UTF8
Codec ID/Info                            : UTF-8 Plain Text
Duration                                 : 2 h 0 min
Bit rate                                 : 115 b/s
Frame rate                               : 0.214 FPS
Count of elements                        : 1548
Stream size                              : 102 KiB (0%)
Language                                 : Hindi
Default                                  : No
Forced                                   : No
Text #17
ID                                       : 19
Format                                   : UTF-8
Codec ID                                 : S_TEXT/UTF8
Codec ID/Info                            : UTF-8 Plain Text
Duration                                 : 2 h 0 min
Bit rate                                 : 43 b/s
Frame rate                               : 0.203 FPS
Count of elements                        : 1467
Stream size                              : 38.3 KiB (0%)
Language                                 : Hungarian
Default                                  : No
Forced                                   : No
Text #18
ID                                       : 20
Format                                   : UTF-8
Codec ID                                 : S_TEXT/UTF8
Codec ID/Info                            : UTF-8 Plain Text
Duration                                 : 2 h 0 min
Bit rate                                 : 41 b/s
Frame rate                               : 0.203 FPS
Count of elements                        : 1466
Stream size                              : 36.5 KiB (0%)
Language                                 : Indonesian
Default                                  : No
Forced                                   : No
Text #19
ID                                       : 21
Format                                   : UTF-8
Codec ID                                 : S_TEXT/UTF8
Codec ID/Info                            : UTF-8 Plain Text
Duration                                 : 2 h 0 min
Bit rate                                 : 41 b/s
Frame rate                               : 0.202 FPS
Count of elements                        : 1456
Stream size                              : 36.8 KiB (0%)
Language                                 : Italian
Default                                  : No
Forced                                   : No
Text #20
ID                                       : 22
Format                                   : UTF-8
Codec ID                                 : S_TEXT/UTF8
Codec ID/Info                            : UTF-8 Plain Text
Duration                                 : 2 h 0 min
Bit rate                                 : 36 b/s
Frame rate                               : 0.175 FPS
Count of elements                        : 1264
Stream size                              : 31.9 KiB (0%)
Language                                 : Japanese
Default                                  : No
Forced                                   : No
Text #21
ID                                       : 23
Format                                   : UTF-8
Codec ID                                 : S_TEXT/UTF8
Codec ID/Info                            : UTF-8 Plain Text
Duration                                 : 2 h 0 min
Bit rate                                 : 100 b/s
Frame rate                               : 0.204 FPS
Count of elements                        : 1470
Stream size                              : 88.6 KiB (0%)
Language                                 : Kannada
Default                                  : No
Forced                                   : No
Text #22
ID                                       : 24
Format                                   : UTF-8
Codec ID                                 : S_TEXT/UTF8
Codec ID/Info                            : UTF-8 Plain Text
Duration                                 : 2 h 0 min
Bit rate                                 : 54 b/s
Frame rate                               : 0.214 FPS
Count of elements                        : 1548
Stream size                              : 48.1 KiB (0%)
Language                                 : Korean
Default                                  : No
Forced                                   : No
Text #23
ID                                       : 25
Format                                   : UTF-8
Codec ID                                 : S_TEXT/UTF8
Codec ID/Info                            : UTF-8 Plain Text
Duration                                 : 2 h 0 min
Bit rate                                 : 139 b/s
Frame rate                               : 0.213 FPS
Count of elements                        : 1541
Stream size                              : 123 KiB (0%)
Language                                 : Malayalam
Default                                  : No
Forced                                   : No
Text #24
ID                                       : 26
Format                                   : UTF-8
Codec ID                                 : S_TEXT/UTF8
Codec ID/Info                            : UTF-8 Plain Text
Duration                                 : 2 h 0 min
Bit rate                                 : 44 b/s
Frame rate                               : 0.213 FPS
Count of elements                        : 1538
Stream size                              : 39.6 KiB (0%)
Language                                 : Malay
Default                                  : No
Forced                                   : No
Text #25
ID                                       : 27
Format                                   : UTF-8
Codec ID                                 : S_TEXT/UTF8
Codec ID/Info                            : UTF-8 Plain Text
Duration                                 : 2 h 0 min
Bit rate                                 : 43 b/s
Frame rate                               : 0.213 FPS
Count of elements                        : 1540
Stream size                              : 38.0 KiB (0%)
Language                                 : Norwegian Bokmal
Default                                  : No
Forced                                   : No
Text #26
ID                                       : 28
Format                                   : UTF-8
Codec ID                                 : S_TEXT/UTF8
Codec ID/Info                            : UTF-8 Plain Text
Duration                                 : 2 h 0 min
Bit rate                                 : 41 b/s
Frame rate                               : 0.213 FPS
Count of elements                        : 1538
Stream size                              : 36.3 KiB (0%)
Language                                 : Dutch
Default                                  : No
Forced                                   : No
Text #27
ID                                       : 29
Format                                   : UTF-8
Codec ID                                 : S_TEXT/UTF8
Codec ID/Info                            : UTF-8 Plain Text
Duration                                 : 2 h 0 min
Bit rate                                 : 38 b/s
Frame rate                               : 0.200 FPS
Count of elements                        : 1442
Stream size                              : 33.8 KiB (0%)
Language                                 : Polish
Default                                  : No
Forced                                   : No
Text #28
ID                                       : 30
Format                                   : UTF-8
Codec ID                                 : S_TEXT/UTF8
Codec ID/Info                            : UTF-8 Plain Text
Duration                                 : 2 h 0 min
Bit rate                                 : 41 b/s
Frame rate                               : 0.210 FPS
Count of elements                        : 1514
Stream size                              : 36.9 KiB (0%)
Title                                    : Brazilian
Language                                 : Portuguese
Default                                  : No
Forced                                   : No
Text #29
ID                                       : 31
Format                                   : UTF-8
Codec ID                                 : S_TEXT/UTF8
Codec ID/Info                            : UTF-8 Plain Text
Duration                                 : 2 h 0 min
Bit rate                                 : 47 b/s
Frame rate                               : 0.212 FPS
Count of elements                        : 1533
Stream size                              : 41.7 KiB (0%)
Title                                    : European
Language                                 : Portuguese
Default                                  : No
Forced                                   : No
Text #30
ID                                       : 32
Format                                   : UTF-8
Codec ID                                 : S_TEXT/UTF8
Codec ID/Info                            : UTF-8 Plain Text
Duration                                 : 2 h 0 min
Bit rate                                 : 46 b/s
Frame rate                               : 0.203 FPS
Count of elements                        : 1468
Stream size                              : 40.9 KiB (0%)
Language                                 : Romanian
Default                                  : No
Forced                                   : No
Text #31
ID                                       : 33
Format                                   : UTF-8
Codec ID                                 : S_TEXT/UTF8
Codec ID/Info                            : UTF-8 Plain Text
Duration                                 : 2 h 0 min
Bit rate                                 : 44 b/s
Frame rate                               : 0.203 FPS
Count of elements                        : 1464
Stream size                              : 39.0 KiB (0%)
Language                                 : Swedish
Default                                  : No
Forced                                   : No
Text #32
ID                                       : 34
Format                                   : UTF-8
Codec ID                                 : S_TEXT/UTF8
Codec ID/Info                            : UTF-8 Plain Text
Duration                                 : 2 h 0 min
Bit rate                                 : 110 b/s
Frame rate                               : 0.204 FPS
Count of elements                        : 1470
Stream size                              : 97.4 KiB (0%)
Language                                 : Tamil
Default                                  : No
Forced                                   : No
Text #33
ID                                       : 35
Format                                   : UTF-8
Codec ID                                 : S_TEXT/UTF8
Codec ID/Info                            : UTF-8 Plain Text
Duration                                 : 2 h 0 min
Bit rate                                 : 101 b/s
Frame rate                               : 0.201 FPS
Count of elements                        : 1455
Stream size                              : 89.4 KiB (0%)
Language                                 : Telugu
Default                                  : No
Forced                                   : No
Text #34
ID                                       : 36
Format                                   : UTF-8
Codec ID                                 : S_TEXT/UTF8
Codec ID/Info                            : UTF-8 Plain Text
Duration                                 : 2 h 0 min
Bit rate                                 : 109 b/s
Frame rate                               : 0.215 FPS
Count of elements                        : 1551
Stream size                              : 96.7 KiB (0%)
Language                                 : Thai
Default                                  : No
Forced                                   : No
Text #35
ID                                       : 37
Format                                   : UTF-8
Codec ID                                 : S_TEXT/UTF8
Codec ID/Info                            : UTF-8 Plain Text
Duration                                 : 2 h 0 min
Bit rate                                 : 44 b/s
Frame rate                               : 0.212 FPS
Count of elements                        : 1528
Stream size                              : 38.9 KiB (0%)
Language                                 : Turkish
Default                                  : No
Forced                                   : No
Text #36
ID                                       : 38
Format                                   : UTF-8
Codec ID                                 : S_TEXT/UTF8
Codec ID/Info                            : UTF-8 Plain Text
Duration                                 : 2 h 0 min
Bit rate                                 : 47 b/s
Frame rate                               : 0.214 FPS
Count of elements                        : 1548
Stream size                              : 42.0 KiB (0%)
Title                                    : Simplified
Language                                 : Chinese
Default                                  : No
Forced                                   : No
Text #37
ID                                       : 39
Format                                   : UTF-8
Codec ID                                 : S_TEXT/UTF8
Codec ID/Info                            : UTF-8 Plain Text
Duration                                 : 2 h 0 min
Bit rate                                 : 41 b/s
Frame rate                               : 0.204 FPS
Count of elements                        : 1470
Stream size                              : 36.5 KiB (0%)
Title                                    : Traditional
Language                                 : Chinese
Default                                  : No
Forced                                   : No
部分资源为软字幕,移动端推荐播放器:MxPlayer,nPlayer,infuse ,其他播放器请自行尝试。
部分资源为软字幕,电脑端推荐播放器:PotPlayer,完美解码,KMPLAYER,其他播放器请自行尝试。






~~~~~~~~~~~~~~~~~~~~~~~~~~~~~~~~~~~~~~~~~
[2024][欧美][动作][WEB-4K]新威龙杀阵[简繁英字幕].Road.House.2024.2160p.AMZN.WEB-DL.H265.HDR.DDP5.1- 13.22GB

【文件列表】:


Road.House.2024.2160p.AMZN.WEB-DL.H265.HDR.DDP5.1-SONYHD.



【下载地址列表】:


游客
文件下载链接就在这里,在您回复评论成功后才能显示。
请勿回复无意义的灌水内容。


下拉页面到最底部回复或者【点击此处快捷回复】,回复后返回此处即可查看下载链接。
如您没注册本站会员,可以点击注册本站,注册后即可回复下载。



软字幕无法在截图上展现,HDR版本/杜比视界版本截图会出现颜色异常,请使用支持的设备播放!






[img][/img]






[img][/img]

(HDR版本/杜比视界版本,截图会出现颜色异常,请使用支持的设备播放)

小贴士:【影视自媒体解说文案请移步:夏至文案解说网 www.xiazhi.vip

上一篇:[2021][其它][惊悚][WEB-1080P]大白鲨之夺命鲨口[中文字幕].Great.White.2021.1080p.Hami.WEB-DL.H264.AAC- 3.66GB
下一篇:[2023][欧美][动作][BD-1080P]静夜厮杀[国语音轨/简繁英字幕].Silent.Night.2023.1080p.BluRay.x264.DTS- 11.69GB
回复

使用道具 举报

您需要登录后才可以回帖 登录 | 立即注册

本版积分规则

Archiver|手机版|小众纪录片影视聚合

GMT+8, 2024-7-25 00:10 , Processed in 0.162552 second(s), 12 queries , Gzip On, Redis On.

Powered by 小众纪录片影视聚合 @2010-2023

Copyright © 2010-2024, https://www.xzjlp.com/.


免责说明:本站所有内容链接、图文介绍等均来自于互联网网友分享,本站仅支持web页面展示和文字介绍,绝不提供在线观看和存储服务,也不参与录制、上传、压片。若本站收录内容无意侵犯贵司版权,请发邮件到【a885185#163.com】联系本站,我们将在第一时间删除侵权内容。谢谢!

快速回复 返回顶部 返回列表