小众纪录片影视聚合

 找回密码
 立即注册
查看: 8|回复: 0

[蓝光电影] [更 早][其它][剧情][BD-1080P]东方快车谋杀案[简繁英字幕].Murder.on.the.Orient.Express.1974.1080p.BluRay.x264.DTS- 14

[复制链接]

116万

主题

116万

帖子

116万

积分

超级版主

Rank: 8Rank: 8

积分
1167997
发表于 2024-7-9 21:26:02 | 显示全部楼层 |阅读模式


[更 早][其它][剧情][BD-1080P]东方快车谋杀案[简繁英字幕].Murder.on.the.Orient.Express.1974.1080p.BluRay.x264.DTS- 14

完整标题:东方快车谋杀案[简繁英字幕].Murder.on.the.Orient.Express.1974.1080p.BluRay.x264.DTS-SONYHD 14.68GB
◎标  题 东方快车谋杀案
◎译  名 火车谋杀案 / Agatha Christie's Murder on the Orient Express
◎片  名 Murder on the Orient Express
◎年  代 1974
◎产  地 英国
◎类  别 剧情 / 悬疑 / 犯罪
◎语  言 英语 / 土耳其语 / 法语 / 德语 / 意大利语 / 瑞典语
◎上映日期 1974-11-24
◎IMDb评分 7.2/10 (67300人评价)
◎IMDb链接 https://www.imdb.com/title/tt0071877/
◎豆瓣评分 8.5/10 (148988人评价)
◎豆瓣链接 https://movie.douban.com/subject/1292699/
◎片  长 128分钟
◎导  演 西德尼·吕美特 Sidney Lumet
◎编  剧 保罗·戴恩 Paul Dehn
       阿加莎·克里斯蒂 Agatha Christie
◎演  员 阿尔伯特·芬尼 Albert Finney
       劳伦·白考尔 Lauren Bacall
       马丁·鲍尔萨姆 Martin Balsam
       英格丽·褒曼 Ingrid Bergman
       杰奎琳·比塞特 Jacqueline Bisset
       让-皮埃尔·卡塞尔 Jean-Pierre Cassel
       肖恩·康纳利 Sean Connery
       约翰·吉尔古德 John Gielgud
       温蒂·希勒 Wendy Hiller
       安东尼·博金斯 Anthony Perkins
       瓦妮莎·雷德格雷夫 Vanessa Redgrave
       理查德·威德马克 Richard Widmark
       麦克尔·约克 Michael York
       瑞秋·罗伯茨 Rachel Roberts
       弗农·多布切夫 Vernon Dobtcheff
       科林·布莱克利 Colin Blakely
       乔治·库鲁里斯 George Coulouris
       丹尼斯·奎利 Denis Quilley
       Jeremy Lloyd Jeremy Lloyd
       约翰·莫法特 John Moffatt
◎简  介
    1930年,纽约发生了一起骇人听闻的绑票撕票案,主谋卡塞蒂携赎金逍遥法外。 5年后,侦探赫丘里·波罗(艾伯特·芬尼 饰)乘船渡过博斯普鲁斯海峡,并在朋友比安奇(马丁·鲍尔萨姆 饰)的安排下登上东方快车,去往伦敦。一日凌晨,波罗被隔壁10号包间的叫声惊醒。随后,因雪堆掩埋铁轨,列车被迫停于南斯拉夫境内。波罗再次睡下不久,又被吵嚷声惊醒。贵妇哈里特·贝琳达·哈伯德(劳伦·巴考尔 饰)声称10号包间的富翁雷切特(理查德·威德马克 饰)潜入了自己的11号包间。天亮后,雷切特的管家贝多斯(约翰·吉尔古德 饰)端来了饮料,却敲不开10号包间的门。列车员皮埃尔·保罗·米歇尔(让-皮埃尔·卡塞尔 饰)用钥匙开了锁,但是里面挂了门链。波罗与皮埃尔合力扳开门,发现雷切特口角流血死不瞑目。经医生康斯坦丁(乔治·库鲁里斯 饰)检查,雷切特被下了药,身中12刀,死亡时间为0点至2点间……##### MediaInfo ######
General
Unique ID                                : 182312393784953238277083151070781917222 (0x892816FFE8466A4EC719891D859A4826)
Complete name                            : Murder.on.the.Orient.Express.1974.1080p.BluRay.x264.DTS-SONYHD.mkv
Duration                                 : 2 h 7 min
Overall bit rate                         : 16.5 Mb/s
Video
ID                                       : 1
Format                                   : AVC
Format/Info                              : Advanced Video Codec
Format profile                           : [email protected]
Format settings                          : CABAC / 4 Ref Frames
Format settings, CABAC                   : Yes
Format settings, Reference frames        : 4 frames
Codec ID                                 : V_MPEG4/ISO/AVC
Duration                                 : 2 h 7 min
Bit rate                                 : 14.9 Mb/s
Width                                    : 1 920 pixels
Height                                   : 1 080 pixels
Display aspect ratio                     : 16:9
Frame rate mode                          : Constant
Frame rate                               : 23.976 (24000/1001) FPS
Color space                              : YUV
Chroma subsampling                       : 4:2:0
Bit depth                                : 8 bits
Scan type                                : Progressive
Bits/(Pixel*Frame)                       : 0.299
Stream size                              : 13.2 GiB (90%)
Writing library                          : x264 core 164 r3085+55M 938b6d0 t_mod_New [(8 & 10)-bit@all X86_64]
Encoding settings                        : cabac=1 / ref=4 / deblock=1:-3:-3 / analyse=0x3:0x133 / me=umh / subme=11 / psy=1 / fade_compensate=0.00 / psy_rd=1.00:0.00 / mixed_ref=1 / me_range=48 / chroma_me=1 / trellis=2 / 8x8dct=1 / cqm=0 / deadzone=21,11 / fast_pskip=0 / chroma_qp_offset=-3 / threads=34 / lookahead_threads=8 / sliced_threads=0 / nr=0 / decimate=0 / interlaced=0 / bluray_compat=0 / constrained_intra=0 / fgo=0 / bframes=11 / b_pyramid=2 / b_adapt=2 / b_bias=0 / direct=3 / weightb=1 / open_gop=0 / weightp=2 / keyint=240 / keyint_min=1 / scenecut=40 / intra_refresh=0 / rc_lookahead=72 / rc=crf / mbtree=0 / crf=20.4700 / qcomp=0.60 / qpmin=0:0:0 / qpmax=69:69:69 / qpstep=4 / vbv_maxrate=62500 / vbv_bufsize=78125 / crf_max=0.0 / nal_hrd=none / filler=0 / ip_ratio=1.40 / pb_ratio=1.30 / aq=3:0.70 / aq-sensitivity=10.00 / aq-factor=1.00:1.00:1.00 / aq2=0 / aq3=0
Default                                  : Yes
Forced                                   : No
Audio
ID                                       : 2
ID in the original source medium         : 4352 (0x1100)
Format                                   : DTS
Format/Info                              : Digital Theater Systems
Codec ID                                 : A_DTS
Duration                                 : 2 h 7 min
Bit rate mode                            : Constant
Bit rate                                 : 1 509 kb/s
Channel(s)                               : 6 channels
Channel layout                           : C L R Ls Rs LFE
Sampling rate                            : 48.0 kHz
Frame rate                               : 93.750 FPS (512 SPF)
Bit depth                                : 24 bits
Compression mode                         : Lossy
Stream size                              : 1.34 GiB (9%)
Title                                    : English
Language                                 : English
Default                                  : Yes
Forced                                   : No
Original source medium                   : Blu-ray
Text #1
ID                                       : 3
ID in the original source medium         : 4614 (0x1206)
Format                                   : PGS
Muxing mode                              : zlib
Codec ID                                 : S_HDMV/PGS
Codec ID/Info                            : Picture based subtitle format used on BDs/HD-DVDs
Duration                                 : 2 h 4 min
Bit rate                                 : 73.8 kb/s
Frame rate                               : 0.471 FPS
Count of elements                        : 3510
Stream size                              : 65.5 MiB (0%)
Title                                    : chs&eng
Language                                 : Chinese
Default                                  : Yes
Forced                                   : No
Original source medium                   : Blu-ray
Text #2
ID                                       : 4
ID in the original source medium         : 4615 (0x1207)
Format                                   : PGS
Muxing mode                              : zlib
Codec ID                                 : S_HDMV/PGS
Codec ID/Info                            : Picture based subtitle format used on BDs/HD-DVDs
Duration                                 : 2 h 4 min
Bit rate                                 : 74.1 kb/s
Frame rate                               : 0.471 FPS
Count of elements                        : 3510
Stream size                              : 65.8 MiB (0%)
Title                                    : cht&eng
Language                                 : Chinese
Default                                  : No
Forced                                   : No
Original source medium                   : Blu-ray
Text #3
ID                                       : 5
ID in the original source medium         : 4616 (0x1208)
Format                                   : PGS
Muxing mode                              : zlib
Codec ID                                 : S_HDMV/PGS
Codec ID/Info                            : Picture based subtitle format used on BDs/HD-DVDs
Duration                                 : 2 h 4 min
Bit rate                                 : 48.5 kb/s
Frame rate                               : 0.471 FPS
Count of elements                        : 3510
Stream size                              : 43.1 MiB (0%)
Title                                    : chs
Language                                 : Chinese
Default                                  : No
Forced                                   : No
Original source medium                   : Blu-ray
Text #4
ID                                       : 6
ID in the original source medium         : 4617 (0x1209)
Format                                   : PGS
Muxing mode                              : zlib
Codec ID                                 : S_HDMV/PGS
Codec ID/Info                            : Picture based subtitle format used on BDs/HD-DVDs
Duration                                 : 2 h 4 min
Bit rate                                 : 48.9 kb/s
Frame rate                               : 0.471 FPS
Count of elements                        : 3510
Stream size                              : 43.4 MiB (0%)
Title                                    : cht
Language                                 : Chinese
Default                                  : No
Forced                                   : No
Original source medium                   : Blu-ray
Text #5
ID                                       : 7
ID in the original source medium         : 4608 (0x1200)
Format                                   : PGS
Muxing mode                              : zlib
Codec ID                                 : S_HDMV/PGS
Codec ID/Info                            : Picture based subtitle format used on BDs/HD-DVDs
Duration                                 : 1 h 58 min
Bit rate                                 : 47.0 kb/s
Frame rate                               : 0.454 FPS
Count of elements                        : 3220
Stream size                              : 39.7 MiB (0%)
Title                                    : eng
Language                                 : English
Default                                  : No
Forced                                   : No
Original source medium                   : Blu-ray
Menu
00:00:00.000                             : en:Chapter 01
00:05:36.961                             : en:Chapter 02
00:12:17.403                             : en:Chapter 03
00:22:02.321                             : en:Chapter 04
00:29:42.238                             : en:Chapter 05
00:35:48.479                             : en:Chapter 06
00:49:28.298                             : en:Chapter 07
00:59:42.078                             : en:Chapter 08
01:07:27.752                             : en:Chapter 09
01:10:39.693                             : en:Chapter 10
01:20:00.587                             : en:Chapter 11
01:29:05.798                             : en:Chapter 12
01:32:38.344                             : en:Chapter 13
01:33:54.837                             : en:Chapter 14
01:51:38.525                             : en:Chapter 15
02:02:46.192                             : en:Chapter 16
02:05:31.398                             : en:Chapter 17
部分资源为软字幕,移动端推荐播放器:MxPlayer,nPlayer,infuse ,其他播放器请自行尝试。
部分资源为软字幕,电脑端推荐播放器:PotPlayer,完美解码,KMPLAYER,其他播放器请自行尝试。
下载端推荐纯BT下载软件:qBittorrent,Bitcomet,uTorrent ,其他下载软件请自行尝试。不支持吸血迅雷。






~~~~~~~~~~~~~~~~~~~~~~~~~~~~~~~~~~~~~~~~~
[更 早][其它][剧情][BD-1080P]东方快车谋杀案[简繁英字幕].Murder.on.the.Orient.Express.1974.1080p.BluRay.x264.DTS- 14

【文件列表】:


Murder.on.the.Orient.Express.1974.1080p.BluRay.x264.DTS-SONYHD.



【下载地址列表】:


游客
文件下载链接就在这里,在您回复评论成功后才能显示。
请勿回复无意义的灌水内容。


下拉页面到最底部回复或者【点击此处快捷回复】,回复后返回此处即可查看下载链接。
如您没注册本站会员,可以点击注册本站,注册后即可回复下载。



软字幕无法在截图上展现,HDR版本/杜比视界版本截图会出现颜色异常,请使用支持的设备播放!






[img][/img]






[img][/img]

(HDR版本/杜比视界版本,截图会出现颜色异常,请使用支持的设备播放)

小贴士:【影视自媒体解说文案请移步:夏至文案解说网 www.xiazhi.vip

上一篇:[2011][欧美][动作][WEB-4K]碟中谍4[无字片源].Mission.Impossible.IV.Ghost.Protocol.2011.2160p.AMZN.WEB-DL.DDP.5.1.H
下一篇:[更 早][其它][剧情][BD-1080P]东方快车谋杀案[简繁英字幕].Murder.on.the.Orient.Express.1974.1080p.BluRay.x265.10bit.DTS-SON
回复

使用道具 举报

您需要登录后才可以回帖 登录 | 立即注册

本版积分规则

Archiver|手机版|小众纪录片影视聚合

GMT+8, 2024-7-25 03:17 , Processed in 0.071305 second(s), 12 queries , Gzip On, Redis On.

Powered by 小众纪录片影视聚合 @2010-2023

Copyright © 2010-2024, https://www.xzjlp.com/.


免责说明:本站所有内容链接、图文介绍等均来自于互联网网友分享,本站仅支持web页面展示和文字介绍,绝不提供在线观看和存储服务,也不参与录制、上传、压片。若本站收录内容无意侵犯贵司版权,请发邮件到【a885185#163.com】联系本站,我们将在第一时间删除侵权内容。谢谢!

快速回复 返回顶部 返回列表