小众纪录片影视聚合

 找回密码
 立即注册
查看: 7|回复: 0

[蓝光电影] [2024][大陆][动作][WEB-4K]孤胆[国语配音/中文字幕].Rescue.on.One's.Own.2024.2160p.WEB-DL.H265.EDR.DDP2.0- 8.40G

[复制链接]

116万

主题

116万

帖子

116万

积分

超级版主

Rank: 8Rank: 8

积分
1167997
发表于 2024-7-9 21:26:12 | 显示全部楼层 |阅读模式


[2024][大陆][动作][WEB-4K]孤胆[国语配音/中文字幕].Rescue.on.One's.Own.2024.2160p.WEB-DL.H265.EDR.DDP2.0- 8.40G

完整标题:孤胆[国语配音/中文字幕].Rescue.on.One's.Own.2024.2160p.WEB-DL.H265.EDR.DDP2.0-BATWEB 8.40GB
◎标  题 孤胆
◎译  名 孤胆拯救
◎年  代 2024
◎产  地 中国大陆
◎类  别 动作 / 犯罪
◎语  言 汉语普通话
◎上映日期 2024-03-31(中国大陆网络)
◎IMDb链接 https://www.imdb.com/title//
◎豆瓣链接 https://movie.douban.com/subject/35400461/
◎导  演 黑子 Kaiyi Liu
◎演  员 罗立群 Liqun Luo
       魏璐 Lu Wei
       李子雄 Waise Lee
       芦鑫 Xin Lu
       李松柏 Songbo Li
       黄俊鹏 Junpeng Huang
       杨斯 Si Yang
       夏子轩 Zixuan Xia
◎简  介
    影片《孤胆拯救》是一部动作枪战题材为主的电影,讲述了男主跨国营救儿子的故事,情节跌宕起伏,紧张曲折。影片将通过凌厉快速的镜头语言展现惊心动魄的营救场面。##### MediaInfo ######
General
Unique ID                                : 203865301456519681125015583397489324633 (0x995F076400979849B1DD33405232B259)
Complete name                            : Rescue.on.One's.Own.2024.2160p.WEB-DL.H265.EDR.DDP2.0-BATWEB.mkv
Duration                                 : 1 h 25 min
Overall bit rate                         : 14.0 Mb/s
Video
ID                                       : 1
Format                                   : HEVC
Format/Info                              : High Efficiency Video Coding
Format profile                           : Main@L5@Main
Codec ID                                 : V_MPEGH/ISO/HEVC
Duration                                 : 1 h 25 min
Bit rate                                 : 13.7 Mb/s
Width                                    : 3 840 pixels
Height                                   : 1 632 pixels
Display aspect ratio                     : 2.35:1
Frame rate mode                          : Constant
Frame rate                               : 24.000 FPS
Color space                              : YUV
Chroma subsampling                       : 4:2:0
Bit depth                                : 8 bits
Bits/(Pixel*Frame)                       : 0.091
Stream size                              : 8.23 GiB (98%)
Language                                 : Chinese
Default                                  : Yes
Forced                                   : No
Audio #1
ID                                       : 2
Format                                   : AAC LC
Format/Info                              : Advanced Audio Codec Low Complexity
Codec ID                                 : A_AAC-2
Duration                                 : 1 h 25 min
Bit rate                                 : 192 kb/s
Channel(s)                               : 2 channels
Channel layout                           : L R
Sampling rate                            : 44.1 kHz
Frame rate                               : 43.066 FPS (1024 SPF)
Compression mode                         : Lossy
Stream size                              : 116 MiB (1%)
Default                                  : No
Forced                                   : No
Audio #2
ID                                       : 3
Format                                   : E-AC-3
Format/Info                              : Enhanced AC-3
Commercial name                          : Dolby Digital Plus
Codec ID                                 : A_EAC3
Duration                                 : 1 h 25 min
Bit rate mode                            : Constant
Bit rate                                 : 96.0 kb/s
Channel(s)                               : 2 channels
Channel layout                           : L R
Sampling rate                            : 48.0 kHz
Frame rate                               : 31.250 FPS (1536 SPF)
Compression mode                         : Lossy
Stream size                              : 58.8 MiB (1%)
Title                                    : zh-ch [Dolby Digital Plus 2.0]
Language                                 : Chinese
Service kind                             : Complete Main
Default                                  : Yes
Forced                                   : No
部分资源为软字幕,移动端推荐播放器:MxPlayer,nPlayer,infuse ,其他播放器请自行尝试。
部分资源为软字幕,电脑端推荐播放器:PotPlayer,完美解码,KMPLAYER,其他播放器请自行尝试。
下载端推荐纯BT下载软件:qBittorrent,Bitcomet,uTorrent ,其他下载软件请自行尝试。不支持吸血迅雷。






~~~~~~~~~~~~~~~~~~~~~~~~~~~~~~~~~~~~~~~~~
[2024][大陆][动作][WEB-4K]孤胆[国语配音/中文字幕].Rescue.on.One's.Own.2024.2160p.WEB-DL.H265.EDR.DDP2.0- 8.40G

【文件列表】:


Rescue.on.One's.Own.2024.2160p.WEB-DL.H265.EDR.DDP2.0-BATWEB.



【下载地址列表】:


游客
文件下载链接就在这里,在您回复评论成功后才能显示。
请勿回复无意义的灌水内容。


下拉页面到最底部回复或者【点击此处快捷回复】,回复后返回此处即可查看下载链接。
如您没注册本站会员,可以点击注册本站,注册后即可回复下载。



软字幕无法在截图上展现,HDR版本/杜比视界版本截图会出现颜色异常,请使用支持的设备播放!






[img][/img]






[img][/img]

(HDR版本/杜比视界版本,截图会出现颜色异常,请使用支持的设备播放)

小贴士:【影视自媒体解说文案请移步:夏至文案解说网 www.xiazhi.vip

上一篇:[2023][欧美][惊悚][BD-1080P]狩猎之夜[中文字幕/特效字幕].Night.of.the.Hunted.2023.BluRay.1080p.DTS-HDMA5.1.x264- 8
下一篇:[2022][大陆][剧情][WEB-4K]黑鹰少年[国语配音/中文字幕].Team.Black.Hawk.2022.2160p.WEB-DL.H265.EDR.DDP2.0- 9.87GB
回复

使用道具 举报

您需要登录后才可以回帖 登录 | 立即注册

本版积分规则

Archiver|手机版|小众纪录片影视聚合

GMT+8, 2024-7-25 01:57 , Processed in 0.094143 second(s), 12 queries , Gzip On, Redis On.

Powered by 小众纪录片影视聚合 @2010-2023

Copyright © 2010-2024, https://www.xzjlp.com/.


免责说明:本站所有内容链接、图文介绍等均来自于互联网网友分享,本站仅支持web页面展示和文字介绍,绝不提供在线观看和存储服务,也不参与录制、上传、压片。若本站收录内容无意侵犯贵司版权,请发邮件到【a885185#163.com】联系本站,我们将在第一时间删除侵权内容。谢谢!

快速回复 返回顶部 返回列表