小众纪录片影视聚合

 找回密码
 立即注册
查看: 10|回复: 0

[蓝光电影] [更 早][其它][剧情][BD-1080P]瓦莱莉和她的奇迹一周[简繁英字幕].Valerie.and.Her.Week.of.Wonders.1970.CC.1080p.BluRay.x265.10bi

[复制链接]

113万

主题

113万

帖子

113万

积分

超级版主

Rank: 8Rank: 8

积分
1134518
发表于 2024-7-9 21:29:10 | 显示全部楼层 |阅读模式


[更 早][其它][剧情][BD-1080P]瓦莱莉和她的奇迹一周[简繁英字幕].Valerie.and.Her.Week.of.Wonders.1970.CC.1080p.BluRay.x265.10bi

完整标题:瓦莱莉和她的奇迹一周[简繁英字幕].Valerie.and.Her.Week.of.Wonders.1970.CC.1080p.BluRay.x265.10bit.FLAC.1.0-SONYHD 4.82GB
◎标  题 瓦莱莉和她的奇迹一周
◎译  名 Valerie and Her Week of Wonders
◎片  名 Valerie a týden divů
◎年  代 1970
◎产  地 捷克斯洛伐克
◎类  别 剧情 / 奇幻
◎语  言 捷克语
◎上映日期 1970-09-03(意大利) / 1970-10-16(捷克斯洛伐克)
◎IMDb评分 7.1/10 (10341人评价)
◎IMDb链接 https://www.imdb.com/title/tt0066516/
◎豆瓣评分 7.8/10 (3760人评价)
◎豆瓣链接 https://movie.douban.com/subject/1437094/
◎片  长 77分钟
◎导  演 亚罗米尔·伊雷什 Jaromil Jires
◎编  剧 亚罗米尔·伊雷什 Jaromil Jires
       埃斯特尔·克伦巴赫乔娃 Ester Krumbachová
◎演  员 雅罗斯拉娃·莎勒洛娃 Jaroslava Schallerová
        Helena Anýzová
◎简  介
    在得到一对耳环后,Valerie遇到了一些奇怪的事情。她的梦幻冒险开始于她将自己想象成一个面目丑陋的主教的女儿,村庄变成了吸血鬼和巫婆的据点。迅速膨胀的性知觉以及更进一步的越轨尝试,使得Valerie必须面对一个挑战并唤醒她的爆炸性的超现实世界。在这部超现实梦幻曲中,梦境与现实的界线是模糊的。##### MediaInfo ######
General
Unique ID                                : 97943345498222620613845212290577149575 (0x49AF33C30AA89CE47FAA8FA3CF992E87)
Complete name                            : Valerie.and.Her.Week.of.Wonders.1970.CC.1080p.BluRay.x265.10bit.FLAC.1.0-SONYHD.mkv
Duration                                 : 1 h 17 min
Overall bit rate mode                    : Variable
Overall bit rate                         : 8 962 kb/s
Video
ID                                       : 1
Format                                   : HEVC
Format/Info                              : High Efficiency Video Coding
Format profile                           : Main 10@L4@Main
Codec ID                                 : V_MPEGH/ISO/HEVC
Duration                                 : 1 h 17 min
Bit rate                                 : 8 645 kb/s
Width                                    : 1 480 pixels
Height                                   : 1 080 pixels
Display aspect ratio                     : 1.370
Frame rate mode                          : Constant
Frame rate                               : 23.976 (24000/1001) FPS
Color space                              : YUV
Chroma subsampling                       : 4:2:0
Bit depth                                : 10 bits
Bits/(Pixel*Frame)                       : 0.226
Stream size                              : 4.65 GiB (96%)
Writing library                          : x265 3.5g2b25c9ba0+45:[Windows][GCC 10.2.0][64 bit] Yuuki 10bit+8bit+12bit
Encoding settings                        : rc=crf / crf=19.6500 / qcomp=0.60 / qpstep=4 / stats-write=0 / stats-read=0 / no-lossless / no-cu-lossless / aq-mode=3 / aq-strength=0.90 / cbqpoffs=0 / crqpoffs=0 / ipratio=1.40 / pbratio=1.30 / psy-rd=2.00 / psy-rdoq=0.00 / deblock=0:0 / ref=6 / limit-refs=1 / no-limit-modes / bframes=8 / b-adapt=2 / bframe-bias=0 / b-pyramid / b-intra / weightp / weightb / min-keyint=24 / max-keyint=240 / rc-lookahead=24 / gop-lookahead=0 / scenecut=40 / hist-scenecut=0 / radl=0 / max-cu-size=64 / min-cu-size=8 / me=3 / subme=7 / merange=48 / rdoq-level=0 / rd=4 / rdpenalty=0 / dynamic-rd=0.00 / no-rd-refine / ----- / cutree / sao / no-rect / no-amp / no-open-gop / wpp / no-pmode / no-pme / no-psnr / no-ssim / nr-intra=0 / nr-inter=0 / no-constrained-intra / no-strong-intra-smoothing / max-tu-size=32 / tu-inter-depth=1 / tu-intra-depth=1 / limit-tu=0 / qg-size=32 / qpmax=69 / qpmin=0 / ----- / cpuid=1111039 / frame-threads=5 / numa-pools=+ / log-level=2 / input-csp=1 / input-res=1480x1080 / interlace=0 / level-idc=0 / high-tier=1 / uhd-bd=0 / no-allow-non-conformance / repeat-headers / aud / no-hrd / info / hash=0 / no-temporal-layers / lookahead-slices=0 / no-splice / no-intra-refresh / no-ssim-rd / signhide / no-tskip / max-merge=3 / temporal-mvp / no-frame-dup / no-hme / no-analyze-src-pics / no-sao-non-deblock / selective-sao=4 / early-skip / rskip / no-fast-intra / no-tskip-fast / no-splitrd-skip / zone-count=0 / no-strict-cbr / no-rc-grain / no-const-vbv / sar=0 / overscan=0 / videoformat=5 / range=0 / colorprim=2 / transfer=2 / colormatrix=2 / chromaloc=0 / display-window=0 / cll=0,0 / min-luma=0 / max-luma=1023 / log2-max-poc-lsb=8 / vui-timing-info / vui-hrd-info / slices=1 / no-opt-qp-pps / no-opt-ref-list-length-pps / no-multi-pass-opt-rps / scenecut-bias=0.05 / hist-threshold=0.03 / no-opt-cu-delta-qp / no-aq-motion / no-hdr10 / no-hdr10-opt / no-dhdr10-opt / no-idr-recovery-sei / analysis-reuse-level=0 / analysis-save-reuse-level=0 / analysis-load-reuse-level=0 / scale-factor=0 / refine-intra=0 / refine-inter=0 / refine-mv=1 / refine-ctu-distortion=0 / no-limit-sao / ctu-info=0 / no-lowpass-dct / refine-analysis-type=0 / copy-pic=1 / max-ausize-factor=1.0 / no-dynamic-refine / no-single-sei / no-hevc-aq / no-svt / no-field / qp-adaptation-range=1.00 / scenecut-aware-qp=0conformance-window-offsets / right=0 / bottom=0 / decoder-max-rate=0 / no-vbv-live-multi-pass
Default                                  : Yes
Forced                                   : No
Audio
ID                                       : 2
Format                                   : FLAC
Format/Info                              : Free Lossless Audio Codec
Codec ID                                 : A_FLAC
Duration                                 : 1 h 17 min
Bit rate mode                            : Variable
Bit rate                                 : 278 kb/s
Channel(s)                               : 1 channel
Channel layout                           : C
Sampling rate                            : 48.0 kHz
Frame rate                               : 11.719 FPS (4096 SPF)
Bit depth                                : 16 bits
Compression mode                         : Lossless
Stream size                              : 153 MiB (3%)
Title                                    : Czech
Writing library                          : libFLAC 1.2.1 (UTC 2007-09-17)
Language                                 : Czech
Default                                  : Yes
Forced                                   : No
Text #1
ID                                       : 3
ID in the original source medium         : 4609 (0x1201)
Format                                   : PGS
Muxing mode                              : zlib
Codec ID                                 : S_HDMV/PGS
Codec ID/Info                            : Picture based subtitle format used on BDs/HD-DVDs
Duration                                 : 1 h 16 min
Bit rate                                 : 21.3 kb/s
Frame rate                               : 0.240 FPS
Count of elements                        : 1102
Stream size                              : 11.6 MiB (0%)
Title                                    : chs&eng
Language                                 : Chinese
Default                                  : Yes
Forced                                   : No
Original source medium                   : Blu-ray
Text #2
ID                                       : 4
ID in the original source medium         : 4610 (0x1202)
Format                                   : PGS
Muxing mode                              : zlib
Codec ID                                 : S_HDMV/PGS
Codec ID/Info                            : Picture based subtitle format used on BDs/HD-DVDs
Duration                                 : 1 h 16 min
Bit rate                                 : 21.4 kb/s
Frame rate                               : 0.240 FPS
Count of elements                        : 1102
Stream size                              : 11.7 MiB (0%)
Title                                    : cht&eng
Language                                 : Chinese
Default                                  : No
Forced                                   : No
Original source medium                   : Blu-ray
Text #3
ID                                       : 5
ID in the original source medium         : 4611 (0x1203)
Format                                   : PGS
Muxing mode                              : zlib
Codec ID                                 : S_HDMV/PGS
Codec ID/Info                            : Picture based subtitle format used on BDs/HD-DVDs
Duration                                 : 1 h 16 min
Bit rate                                 : 12.5 kb/s
Frame rate                               : 0.240 FPS
Count of elements                        : 1102
Stream size                              : 6.85 MiB (0%)
Title                                    : chs
Language                                 : Chinese
Default                                  : No
Forced                                   : No
Original source medium                   : Blu-ray
Text #4
ID                                       : 6
ID in the original source medium         : 4612 (0x1204)
Format                                   : PGS
Muxing mode                              : zlib
Codec ID                                 : S_HDMV/PGS
Codec ID/Info                            : Picture based subtitle format used on BDs/HD-DVDs
Duration                                 : 1 h 16 min
Bit rate                                 : 12.7 kb/s
Frame rate                               : 0.240 FPS
Count of elements                        : 1102
Stream size                              : 6.92 MiB (0%)
Title                                    : cht
Language                                 : Chinese
Default                                  : No
Forced                                   : No
Original source medium                   : Blu-ray
Text #5
ID                                       : 7
ID in the original source medium         : 4608 (0x1200)
Format                                   : PGS
Muxing mode                              : zlib
Codec ID                                 : S_HDMV/PGS
Codec ID/Info                            : Picture based subtitle format used on BDs/HD-DVDs
Duration                                 : 1 h 16 min
Bit rate                                 : 20.7 kb/s
Frame rate                               : 0.227 FPS
Count of elements                        : 1040
Stream size                              : 11.3 MiB (0%)
Title                                    : eng
Language                                 : English
Default                                  : No
Forced                                   : No
Original source medium                   : Blu-ray
Menu
00:00:00.000                             : en:Innocence
00:02:55.008                             : en:Pearls and petals
00:07:15.852                             : en:No longer a child
00:11:00.493                             : en:Special sermon
00:16:58.100                             : en:Lashings
00:22:05.324                             : en:Striking a bargain
00:26:04.021                             : en:Among cannibals
00:31:40.649                             : en:After midnight
00:34:46.876                             : en:Discoveries
00:38:08.786                             : en:New guest
00:41:38.621                             : en:Captive
00:44:52.732                             : en:Brother and sister
00:46:10.226                             : en:Salvation in blood
00:51:36.302                             : en:Disgraced
00:54:36.440                             : en:Under a spell
00:56:49.031                             : en:Witch
00:59:50.378                             : en:Transformation
01:03:28.430                             : en:Secrets revealed
01:09:39.592                             : en:Mother and father
01:11:44.509                             : en:Sweet dreams
部分资源为软字幕,移动端推荐播放器:MxPlayer,nPlayer,infuse ,其他播放器请自行尝试。
部分资源为软字幕,电脑端推荐播放器:PotPlayer,完美解码,KMPLAYER,其他播放器请自行尝试。
下载端推荐纯BT下载软件:qBittorrent,Bitcomet,uTorrent ,其他下载软件请自行尝试。不支持吸血迅雷。






~~~~~~~~~~~~~~~~~~~~~~~~~~~~~~~~~~~~~~~~~
[更 早][其它][剧情][BD-1080P]瓦莱莉和她的奇迹一周[简繁英字幕].Valerie.and.Her.Week.of.Wonders.1970.CC.1080p.BluRay.x265.10bi

【文件列表】:


Valerie.and.Her.Week.of.Wonders.1970.CC.1080p.BluRay.x265.10bit.FLAC.1.0-SO...



【下载地址列表】:


游客
文件下载链接就在这里,在您回复评论成功后才能显示。
请勿回复无意义的灌水内容。


下拉页面到最底部回复或者【点击此处快捷回复】,回复后返回此处即可查看下载链接。
如您没注册本站会员,可以点击注册本站,注册后即可回复下载。



软字幕无法在截图上展现,HDR版本/杜比视界版本截图会出现颜色异常,请使用支持的设备播放!






[img][/img]






[img][/img]

(HDR版本/杜比视界版本,截图会出现颜色异常,请使用支持的设备播放)

小贴士:【影视自媒体解说文案请移步:夏至文案解说网 www.xiazhi.vip

上一篇:[2024][其它][其它][WEB-1080P]马杜[中文字幕].Madu.2024.1080p.DSNP.WEB-DL.DDP5.1.H264- 4.87GB
下一篇:[2024][大陆][灾难][WEB-4K]大兽[杜比视界版本][国语配音/中文字幕].Sianviathan.2024.2160p.WEB-DL.H265.DV.DDP2.0- 5.85GB
回复

使用道具 举报

您需要登录后才可以回帖 登录 | 立即注册

本版积分规则

Archiver|手机版|小众纪录片影视聚合

GMT+8, 2024-7-22 06:07 , Processed in 0.071053 second(s), 14 queries , Gzip On, Redis On.

Powered by 小众纪录片影视聚合 @2010-2023

Copyright © 2010-2024, https://www.xzjlp.com/.


免责说明:本站所有内容链接、图文介绍等均来自于互联网网友分享,本站仅支持web页面展示和文字介绍,绝不提供在线观看和存储服务,也不参与录制、上传、压片。若本站收录内容无意侵犯贵司版权,请发邮件到【a885185#163.com】联系本站,我们将在第一时间删除侵权内容。谢谢!

快速回复 返回顶部 返回列表