小众纪录片影视聚合

 找回密码
 立即注册
查看: 11|回复: 0

[蓝光电影] [2023][其它][剧情][BD-1080P]枯草[中文字幕].About.Dry.Grasses.2023.1080p.BluRay.x265.10bit.DTS- 9.55GB

[复制链接]

116万

主题

116万

帖子

116万

积分

超级版主

Rank: 8Rank: 8

积分
1167997
发表于 2024-7-9 21:29:58 | 显示全部楼层 |阅读模式


[2023][其它][剧情][BD-1080P]枯草[中文字幕].About.Dry.Grasses.2023.1080p.BluRay.x265.10bit.DTS- 9.55GB

完整标题:枯草[中文字幕].About.Dry.Grasses.2023.1080p.BluRay.x265.10bit.DTS-SONYHD 9.55GB
◎标  题 枯草
◎译  名 荒草残雪(港) / 春风劲草(台) / Les herbes sèches / About Dry Grasses / Over Dry Herbs / On Barren Weeds
◎片  名 Kuru Otlar Üstüne
◎年  代 2023
◎产  地 土耳其 / 法国 / 德国 / 瑞典
◎类  别 剧情
◎语  言 土耳其语
◎上映日期 2023-05-19(戛纳电影节) / 2023-07-12(法国)
◎IMDb评分 8.1/10 (5367人评价)
◎IMDb链接 https://www.imdb.com/title/tt13231544/
◎豆瓣评分 7.3/10 (752人评价)
◎豆瓣链接 https://movie.douban.com/subject/35211729/
◎片  长 197分钟
◎导  演 努里·比格·锡兰 Nuri Bilge Ceylan
◎编  剧 埃布鲁·锡兰 Ebru Ceylan
       努里·比格·锡兰 Nuri Bilge Ceylan
       阿克·阿克苏 Akin Aksu
◎演  员 德尼兹·塞利洛格卢 Deniz Celiloglu
       米尔维·迪兹达尔 Merve Dizdar
       穆萨布·埃基奇 Musab Ekici
       埃克·巴奇 Ece Bagci
       埃尔登姆·塞诺卡克 Erdem Senocak
       于克塞·阿克苏 Yüksel Aksu
       穆尼尔·坎·钦多鲁克 Münir Can Cindoruk
        Onur Berk Arslanoglu
        Yildirim Gücük
       坚吉兹.博兹库尔特 Cengiz Bozkurt
        S. Emrah Özdemir
        Elif Ürse
        Elit Andaç Çam
       Nalan Kuruçim Nalan Kuruçim
        Ferhat Akgün
       埃莱姆·坎波拉特 Eylem Canpolat
        Seçkin Aydin
        Turan Selçuk Yerlikaya
        Abti Karatas
        Vahit Yildirim
◎简  介
    隐藏在小亚细亚的茫茫冬雪中,是看不见尽头的凄沧。小学老师萨密自比枯草,一直期待快将调职回城市的学校,但某日一封学生藏在笔记簿里写给他的情书被发现,衍生出他性骚扰学生的指控。梦想幻灭、同袍情谊恶化、其他教职员之间的窃窃私语,使得萨密临近崩溃边缘。直到遇见帮他克服难关的女老师,让这绝望的寒冬起了变化。                                    土耳其电影大师努里·比格·锡兰时隔四年带来新作,借人与人之间的伤痛和救赎,既自省亦警世。餐桌上一场群体与个人、抗争与妥协的意识形态思辩,更令人拍案叫绝。女主角凭此片夺得戛纳电影节最佳女演员殊荣,成为史上首位土耳其戛纳影后。##### MediaInfo ######
General
Unique ID                                : 237431425179533107898814575643642643637 (0xB29FA10FEBB08E195BDE4F0150A944B5)
Complete name                            : About.Dry.Grasses.2023.1080p.BluRay.x265.10bit.DTS-SONYHD.mkv
Duration                                 : 3 h 17 min
Overall bit rate                         : 6 920 kb/s
Video
ID                                       : 1
Format                                   : HEVC
Format/Info                              : High Efficiency Video Coding
Format profile                           : Main 10@L4@Main
Codec ID                                 : V_MPEGH/ISO/HEVC
Duration                                 : 3 h 17 min
Bit rate                                 : 5 389 kb/s
Width                                    : 1 920 pixels
Height                                   : 804 pixels
Display aspect ratio                     : 2.40:1
Frame rate mode                          : Constant
Frame rate                               : 24.000 FPS
Color space                              : YUV
Chroma subsampling                       : 4:2:0
Bit depth                                : 10 bits
Bits/(Pixel*Frame)                       : 0.145
Stream size                              : 7.43 GiB (78%)
Writing library                          : x265 3.5g2b25c9ba0+45:[Windows][GCC 10.2.0][64 bit] Yuuki 10bit+8bit+12bit
Encoding settings                        : rc=crf / crf=16.0000 / qcomp=0.60 / qpstep=4 / stats-write=0 / stats-read=0 / no-lossless / no-cu-lossless / aq-mode=3 / aq-strength=0.90 / cbqpoffs=0 / crqpoffs=0 / ipratio=1.40 / pbratio=1.30 / psy-rd=2.00 / psy-rdoq=0.00 / deblock=0:0 / ref=6 / limit-refs=1 / no-limit-modes / bframes=8 / b-adapt=2 / bframe-bias=0 / b-pyramid / b-intra / weightp / weightb / min-keyint=24 / max-keyint=240 / rc-lookahead=24 / gop-lookahead=0 / scenecut=40 / hist-scenecut=0 / radl=0 / max-cu-size=64 / min-cu-size=8 / me=3 / subme=7 / merange=48 / rdoq-level=0 / rd=4 / rdpenalty=0 / dynamic-rd=0.00 / no-rd-refine / ----- / cutree / sao / no-rect / no-amp / no-open-gop / wpp / no-pmode / no-pme / no-psnr / no-ssim / nr-intra=0 / nr-inter=0 / no-constrained-intra / no-strong-intra-smoothing / max-tu-size=32 / tu-inter-depth=1 / tu-intra-depth=1 / limit-tu=0 / qg-size=32 / qpmax=69 / qpmin=0 / ----- / cpuid=1111039 / frame-threads=4 / numa-pools=+ / log-level=2 / input-csp=1 / input-res=1920x804 / interlace=0 / level-idc=0 / high-tier=1 / uhd-bd=0 / no-allow-non-conformance / no-repeat-headers / aud / no-hrd / info / hash=0 / no-temporal-layers / lookahead-slices=0 / no-splice / no-intra-refresh / no-ssim-rd / signhide / no-tskip / max-merge=3 / temporal-mvp / no-frame-dup / no-hme / no-analyze-src-pics / no-sao-non-deblock / selective-sao=4 / early-skip / rskip / no-fast-intra / no-tskip-fast / no-splitrd-skip / zone-count=0 / no-strict-cbr / no-rc-grain / no-const-vbv / sar=0 / overscan=0 / videoformat=5 / range=0 / colorprim=2 / transfer=2 / colormatrix=2 / chromaloc=0 / display-window=0 / cll=0,0 / min-luma=0 / max-luma=1023 / log2-max-poc-lsb=8 / vui-timing-info / vui-hrd-info / slices=1 / no-opt-qp-pps / no-opt-ref-list-length-pps / no-multi-pass-opt-rps / scenecut-bias=0.05 / hist-threshold=0.03 / no-opt-cu-delta-qp / no-aq-motion / no-hdr10 / no-hdr10-opt / no-dhdr10-opt / no-idr-recovery-sei / analysis-reuse-level=0 / analysis-save-reuse-level=0 / analysis-load-reuse-level=0 / scale-factor=0 / refine-intra=0 / refine-inter=0 / refine-mv=1 / refine-ctu-distortion=0 / no-limit-sao / ctu-info=0 / no-lowpass-dct / refine-analysis-type=0 / copy-pic=1 / max-ausize-factor=1.0 / no-dynamic-refine / no-single-sei / no-hevc-aq / no-svt / no-field / qp-adaptation-range=1.00 / scenecut-aware-qp=0conformance-window-offsets / right=0 / bottom=0 / decoder-max-rate=0 / no-vbv-live-multi-pass
Default                                  : Yes
Forced                                   : No
Audio
ID                                       : 2
ID in the original source medium         : 4352 (0x1100)
Format                                   : DTS
Format/Info                              : Digital Theater Systems
Codec ID                                 : A_DTS
Duration                                 : 3 h 17 min
Bit rate mode                            : Constant
Bit rate                                 : 1 509 kb/s
Channel(s)                               : 6 channels
Channel layout                           : C L R Ls Rs LFE
Sampling rate                            : 48.0 kHz
Frame rate                               : 93.750 FPS (512 SPF)
Bit depth                                : 24 bits
Compression mode                         : Lossy
Stream size                              : 2.08 GiB (22%)
Language                                 : Turkish
Default                                  : Yes
Forced                                   : No
Original source medium                   : Blu-ray
Text #1
ID                                       : 3
ID in the original source medium         : 4609 (0x1201)
Format                                   : PGS
Muxing mode                              : zlib
Codec ID                                 : S_HDMV/PGS
Codec ID/Info                            : Picture based subtitle format used on BDs/HD-DVDs
Duration                                 : 3 h 12 min
Bit rate                                 : 22.7 kb/s
Frame rate                               : 0.475 FPS
Count of elements                        : 5483
Stream size                              : 31.3 MiB (0%)
Title                                    : chs
Language                                 : Chinese
Default                                  : Yes
Forced                                   : No
Original source medium                   : Blu-ray
Text #2
ID                                       : 4
ID in the original source medium         : 4610 (0x1202)
Format                                   : PGS
Muxing mode                              : zlib
Codec ID                                 : S_HDMV/PGS
Codec ID/Info                            : Picture based subtitle format used on BDs/HD-DVDs
Duration                                 : 3 h 12 min
Bit rate                                 : 22.8 kb/s
Frame rate                               : 0.475 FPS
Count of elements                        : 5483
Stream size                              : 31.3 MiB (0%)
Title                                    : cht
Language                                 : Chinese
Default                                  : No
Forced                                   : No
Original source medium                   : Blu-ray
Menu
00:00:00.000                             : en:Chapter 01
00:13:56.375                             : en:Chapter 02
00:33:14.958                             : en:Chapter 03
00:51:27.750                             : en:Chapter 04
01:15:49.708                             : en:Chapter 05
01:32:41.083                             : en:Chapter 06
01:49:41.416                             : en:Chapter 07
02:05:42.166                             : en:Chapter 08
02:22:58.666                             : en:Chapter 09
02:35:14.166                             : en:Chapter 10
02:55:34.583                             : en:Chapter 11
03:13:33.833                             : en:Chapter 12
部分资源为软字幕,移动端推荐播放器:MxPlayer,nPlayer,infuse ,其他播放器请自行尝试。
部分资源为软字幕,电脑端推荐播放器:PotPlayer,完美解码,KMPLAYER,其他播放器请自行尝试。
下载端推荐纯BT下载软件:qBittorrent,Bitcomet,uTorrent ,其他下载软件请自行尝试。不支持吸血迅雷。






~~~~~~~~~~~~~~~~~~~~~~~~~~~~~~~~~~~~~~~~~
[2023][其它][剧情][BD-1080P]枯草[中文字幕].About.Dry.Grasses.2023.1080p.BluRay.x265.10bit.DTS- 9.55GB

【文件列表】:


About.Dry.Grasses.2023.1080p.BluRay.x265.10bit.DTS-SONYHD.



【下载地址列表】:


游客
文件下载链接就在这里,在您回复评论成功后才能显示。
请勿回复无意义的灌水内容。


下拉页面到最底部回复或者【点击此处快捷回复】,回复后返回此处即可查看下载链接。
如您没注册本站会员,可以点击注册本站,注册后即可回复下载。



软字幕无法在截图上展现,HDR版本/杜比视界版本截图会出现颜色异常,请使用支持的设备播放!






[img][/img]






[img][/img]

(HDR版本/杜比视界版本,截图会出现颜色异常,请使用支持的设备播放)

小贴士:【影视自媒体解说文案请移步:夏至文案解说网 www.xiazhi.vip

上一篇:[2023][其它][剧情][BD-1080P]枯草[中文字幕].About.Dry.Grasses.2023.1080p.BluRay.x264.DTS- 19.08GB
下一篇:[更 早][台湾][剧情][BD-1080P]光阴的故事[国语音轨/简繁英字幕].In.Our.Time.1982.1080p.BluRay.x264.FLAC.2.0- 10.63GB
回复

使用道具 举报

您需要登录后才可以回帖 登录 | 立即注册

本版积分规则

Archiver|手机版|小众纪录片影视聚合

GMT+8, 2024-7-25 00:04 , Processed in 0.093907 second(s), 13 queries , Gzip On, Redis On.

Powered by 小众纪录片影视聚合 @2010-2023

Copyright © 2010-2024, https://www.xzjlp.com/.


免责说明:本站所有内容链接、图文介绍等均来自于互联网网友分享,本站仅支持web页面展示和文字介绍,绝不提供在线观看和存储服务,也不参与录制、上传、压片。若本站收录内容无意侵犯贵司版权,请发邮件到【a885185#163.com】联系本站,我们将在第一时间删除侵权内容。谢谢!

快速回复 返回顶部 返回列表