小众纪录片影视聚合

 找回密码
 立即注册
查看: 4|回复: 0

[蓝光电影] [2023][其它][其它][BD-1080P]笑话与香烟[简繁英字幕].Saben.aquell.AKA.Jokes.&.Cigarettes.2023.BluRay.1080p.DTS-HDMA5

[复制链接]

113万

主题

113万

帖子

113万

积分

超级版主

Rank: 8Rank: 8

积分
1134511
发表于 2024-7-9 21:30:09 | 显示全部楼层 |阅读模式


[2023][其它][其它][BD-1080P]笑话与香烟[简繁英字幕].Saben.aquell.AKA.Jokes.&.Cigarettes.2023.BluRay.1080p.DTS-HDMA5

完整标题:笑话与香烟[简繁英字幕].Saben.aquell.AKA.Jokes.&.Cigarettes.2023.BluRay.1080p.DTS-HDMA5.1.x264-DreamHD 14.19GB
◎标  题 笑话与香烟
◎译  名 Jokes & Cigarettes
◎片  名 Saben aquell
◎年  代 2023
◎产  地 西班牙
◎类  别 传记
◎语  言 加泰罗尼亚语 / 西班牙语
◎上映日期 2023-11-01(西班牙)
◎IMDb评分 7.2/10 (1194人评价)
◎IMDb链接 https://www.imdb.com/title/tt27672387/
◎豆瓣链接 https://movie.douban.com/subject/36401872/
◎片  长 117分钟
◎导  演 大卫·特鲁埃瓦 David Trueba
◎编  剧 大卫·特鲁埃瓦 David Trueba
       艾伯特·伊斯皮诺萨 Albert Espinosa
        Gerard Jofra
◎演  员 大卫·贝尔达格尔 David Verdaguer
       卡罗琳娜·尤斯特 Carolina Yuste
        César Tormo
        Francesc Ferrer
       西格弗里德·蒙利昂 Sigfrid Monleón
        Candela Serrat
        Valentí Guardiola
       玛丽娜·萨拉斯 Marina Salas
       Quimet Pla Quimet Pla
        Matilde Muñiz
        Geni Sánchez
       克里斯蒂娜·霍约斯 Cristina Hoyos
        José Luis Melero
       Manel Barceló Manel Barceló
       Ferran Rañé Ferran Rañé
       Lara Dibildos Lara Dibildos
        Max Grosse Majench
        Mateo Jiménez
        Ian Losada
        Màrius Vilà i Ametller
       佩德罗·卡萨布兰科 Pedro Casablanc
◎简  介
    The plot features Eugenio, a young jeweller who in the late sixties meets Conchita on a bus in Barcelona. They instantly fall in love and he learns to play the guitar to accompany her in her music career, for which he will have to fight stage fright. When Conchita has to go away for two weeks, she convinces Eugenio to perform by himself. When she returns, he has become a sensation in the city's underground comedy scene. Little by little, they will develop the character, who will become an unexpected success in a depressed Spain desperately in need of a laugh with this unique narrator who begins all his stories with the saying “Saben aquell...” (Do you know the one...).##### MediaInfo ######
General
Unique ID                                : 259583977516507525815253873550383181712 (0xC34A0E37C0B00F0F3D6F86B754F0EF90)
Complete name                            : Saben.aquell.AKA.Jokes.&.Cigarettes.2023.BluRay.1080p.DTS-HDMA5.1.x264-DreamHD.mkv
Duration                                 : 1 h 57 min
Overall bit rate mode                    : Variable
Overall bit rate                         : 17.3 Mb/s
Video
ID                                       : 1
Format                                   : AVC
Format/Info                              : Advanced Video Codec
Format profile                           : [email protected]
Format settings                          : CABAC / 4 Ref Frames
Format settings, CABAC                   : Yes
Format settings, Reference frames        : 4 frames
Codec ID                                 : V_MPEG4/ISO/AVC
Duration                                 : 1 h 57 min
Bit rate                                 : 12.4 Mb/s
Width                                    : 1 920 pixels
Height                                   : 1 036 pixels
Display aspect ratio                     : 1.85:1
Frame rate mode                          : Constant
Frame rate                               : 24.000 FPS
Color space                              : YUV
Chroma subsampling                       : 4:2:0
Bit depth                                : 8 bits
Scan type                                : Progressive
Bits/(Pixel*Frame)                       : 0.259
Stream size                              : 10.2 GiB (72%)
Writing library                          : x264 core 164 r3094 bfc87b7
Encoding settings                        : cabac=1 / ref=4 / deblock=1:-3:-3 / analyse=0x3:0x133 / me=umh / subme=11 / psy=1 / psy_rd=1.00:0.00 / mixed_ref=1 / me_range=64 / chroma_me=1 / trellis=2 / 8x8dct=1 / cqm=0 / deadzone=21,11 / fast_pskip=0 / chroma_qp_offset=-2 / threads=24 / lookahead_threads=6 / sliced_threads=0 / nr=0 / decimate=0 / interlaced=0 / bluray_compat=0 / constrained_intra=0 / bframes=12 / b_pyramid=2 / b_adapt=2 / b_bias=0 / direct=3 / weightb=1 / open_gop=0 / weightp=2 / keyint=250 / keyint_min=24 / scenecut=40 / intra_refresh=0 / rc=crf / mbtree=0 / crf=17.5 / qcomp=0.70 / qpmin=0 / qpmax=69 / qpstep=4 / ip_ratio=1.30 / pb_ratio=1.20 / aq=3:0.80
Default                                  : Yes
Forced                                   : No
Color range                              : Limited
Color primaries                          : BT.709
Matrix coefficients                      : BT.709
Audio #1
ID                                       : 2
ID in the original source medium         : 4352 (0x1100)
Format                                   : DTS XLL
Format/Info                              : Digital Theater Systems
Commercial name                          : DTS-HD Master Audio
Codec ID                                 : A_DTS
Duration                                 : 1 h 57 min
Bit rate mode                            : Variable
Bit rate                                 : 2 347 kb/s
Channel(s)                               : 6 channels
Channel layout                           : C L R Ls Rs LFE
Sampling rate                            : 48.0 kHz
Frame rate                               : 93.750 FPS (512 SPF)
Bit depth                                : 16 bits
Compression mode                         : Lossless
Stream size                              : 1.93 GiB (14%)
Language                                 : Catalan
Default                                  : Yes
Forced                                   : No
Original source medium                   : Blu-ray
Audio #2
ID                                       : 3
ID in the original source medium         : 4354 (0x1102)
Format                                   : DTS XLL
Format/Info                              : Digital Theater Systems
Commercial name                          : DTS-HD Master Audio
Codec ID                                 : A_DTS
Duration                                 : 1 h 57 min
Bit rate mode                            : Variable
Bit rate                                 : 2 346 kb/s
Channel(s)                               : 6 channels
Channel layout                           : C L R Ls Rs LFE
Sampling rate                            : 48.0 kHz
Frame rate                               : 93.750 FPS (512 SPF)
Bit depth                                : 16 bits
Compression mode                         : Lossless
Stream size                              : 1.93 GiB (14%)
Language                                 : Spanish
Default                                  : Yes
Forced                                   : No
Original source medium                   : Blu-ray
Text #1
ID                                       : 4
ID in the original source medium         : 4608 (0x1200)
Format                                   : PGS
Codec ID                                 : S_HDMV/PGS
Codec ID/Info                            : Picture based subtitle format used on BDs/HD-DVDs
Duration                                 : 1 h 50 min
Bit rate                                 : 20.7 kb/s
Frame rate                               : 0.289 FPS
Count of elements                        : 1919
Stream size                              : 16.4 MiB (0%)
Language                                 : Spanish
Default                                  : Yes
Forced                                   : No
Original source medium                   : Blu-ray
Text #2
ID                                       : 5
ID in the original source medium         : 4610 (0x1202)
Format                                   : PGS
Codec ID                                 : S_HDMV/PGS
Codec ID/Info                            : Picture based subtitle format used on BDs/HD-DVDs
Duration                                 : 1 h 52 min
Bit rate                                 : 31.5 kb/s
Frame rate                               : 0.449 FPS
Count of elements                        : 3033
Stream size                              : 25.4 MiB (0%)
Language                                 : English
Default                                  : Yes
Forced                                   : No
Original source medium                   : Blu-ray
Text #3
ID                                       : 6
ID in the original source medium         : 4612 (0x1204)
Format                                   : PGS
Codec ID                                 : S_HDMV/PGS
Codec ID/Info                            : Picture based subtitle format used on BDs/HD-DVDs
Duration                                 : 1 h 52 min
Bit rate                                 : 43.3 kb/s
Frame rate                               : 0.448 FPS
Count of elements                        : 3027
Stream size                              : 34.8 MiB (0%)
Title                                    : CHS&ENG
Language                                 : Chinese
Default                                  : Yes
Forced                                   : No
Original source medium                   : Blu-ray
Text #4
ID                                       : 7
ID in the original source medium         : 4613 (0x1205)
Format                                   : PGS
Codec ID                                 : S_HDMV/PGS
Codec ID/Info                            : Picture based subtitle format used on BDs/HD-DVDs
Duration                                 : 1 h 52 min
Bit rate                                 : 26.1 kb/s
Frame rate                               : 0.448 FPS
Count of elements                        : 3027
Stream size                              : 21.0 MiB (0%)
Title                                    : CHS
Language                                 : Chinese
Default                                  : Yes
Forced                                   : No
Original source medium                   : Blu-ray
Text #5
ID                                       : 8
ID in the original source medium         : 4614 (0x1206)
Format                                   : PGS
Codec ID                                 : S_HDMV/PGS
Codec ID/Info                            : Picture based subtitle format used on BDs/HD-DVDs
Duration                                 : 1 h 52 min
Bit rate                                 : 46.4 kb/s
Frame rate                               : 0.448 FPS
Count of elements                        : 3027
Stream size                              : 37.4 MiB (0%)
Title                                    : CHT&ENG
Language                                 : Chinese
Default                                  : Yes
Forced                                   : No
Original source medium                   : Blu-ray
Text #6
ID                                       : 9
ID in the original source medium         : 4615 (0x1207)
Format                                   : PGS
Codec ID                                 : S_HDMV/PGS
Codec ID/Info                            : Picture based subtitle format used on BDs/HD-DVDs
Duration                                 : 1 h 52 min
Bit rate                                 : 29.2 kb/s
Frame rate                               : 0.448 FPS
Count of elements                        : 3027
Stream size                              : 23.5 MiB (0%)
Title                                    : CHT
Language                                 : Chinese
Default                                  : Yes
Forced                                   : No
Original source medium                   : Blu-ray
Menu
00:00:00.000                             : en:第 01 章
00:08:54.541                             : en:第 02 章
00:20:30.583                             : en:第 03 章
00:34:39.875                             : en:第 04 章
00:46:31.875                             : en:第 05 章
00:58:30.833                             : en:第 06 章
01:09:56.083                             : en:第 07 章
01:21:34.958                             : en:第 08 章
01:33:53.583                             : en:第 09 章
01:45:34.708                             : en:第 10 章
部分资源为软字幕,移动端推荐播放器:MxPlayer,nPlayer,infuse ,其他播放器请自行尝试。
部分资源为软字幕,电脑端推荐播放器:PotPlayer,完美解码,KMPLAYER,其他播放器请自行尝试。
下载端推荐纯BT下载软件:qBittorrent,Bitcomet,uTorrent ,其他下载软件请自行尝试。不支持吸血迅雷。






~~~~~~~~~~~~~~~~~~~~~~~~~~~~~~~~~~~~~~~~~
[2023][其它][其它][BD-1080P]笑话与香烟[简繁英字幕].Saben.aquell.AKA.Jokes.&.Cigarettes.2023.BluRay.1080p.DTS-HDMA5

【文件列表】:


Saben.aquell.AKA.Jokes.&.Cigarettes.2023.BluRay.1080p.DTS-HDMA5.1.x264-Drea...



【下载地址列表】:


游客
文件下载链接就在这里,在您回复评论成功后才能显示。
请勿回复无意义的灌水内容。


下拉页面到最底部回复或者【点击此处快捷回复】,回复后返回此处即可查看下载链接。
如您没注册本站会员,可以点击注册本站,注册后即可回复下载。



软字幕无法在截图上展现,HDR版本/杜比视界版本截图会出现颜色异常,请使用支持的设备播放!






[img][/img]






[img][/img]

(HDR版本/杜比视界版本,截图会出现颜色异常,请使用支持的设备播放)

小贴士:【影视自媒体解说文案请移步:夏至文案解说网 www.xiazhi.vip

上一篇:[更 早][台湾][剧情][BD-1080P]光阴的故事[国语音轨/简繁英字幕].In.Our.Time.1982.1080p.BluRay.x265.10bit.FLAC.2.0- 7.55G
下一篇:[2020][其它][动作][WEB-1080P]俄罗斯突袭[国语配音/中文字幕].Russian.Raid.2020.1080p.WEB-DL.H265.DDP5.1.2Audio- 1.82G
回复

使用道具 举报

您需要登录后才可以回帖 登录 | 立即注册

本版积分规则

Archiver|手机版|小众纪录片影视聚合

GMT+8, 2024-7-22 06:06 , Processed in 0.705674 second(s), 13 queries , Gzip On, Redis On.

Powered by 小众纪录片影视聚合 @2010-2023

Copyright © 2010-2024, https://www.xzjlp.com/.


免责说明:本站所有内容链接、图文介绍等均来自于互联网网友分享,本站仅支持web页面展示和文字介绍,绝不提供在线观看和存储服务,也不参与录制、上传、压片。若本站收录内容无意侵犯贵司版权,请发邮件到【a885185#163.com】联系本站,我们将在第一时间删除侵权内容。谢谢!

快速回复 返回顶部 返回列表