小众纪录片影视聚合

 找回密码
 立即注册
查看: 5|回复: 0

[蓝光电影] [2020][其它][剧情][BD-1080P]少年侦探[简繁英字幕].The.Kid.Detective.2020.1080p.BluRay.x264.DTS- 6.19GB

[复制链接]

112万

主题

112万

帖子

112万

积分

超级版主

Rank: 8Rank: 8

积分
1128817
发表于 2024-7-9 21:32:27 | 显示全部楼层 |阅读模式


[2020][其它][剧情][BD-1080P]少年侦探[简繁英字幕].The.Kid.Detective.2020.1080p.BluRay.x264.DTS- 6.19GB

完整标题:少年侦探[简繁英字幕].The.Kid.Detective.2020.1080p.BluRay.x264.DTS-SONYHD 6.19GB
◎标  题 少年侦探
◎片  名 The Kid Detective
◎年  代 2020
◎产  地 加拿大
◎类  别 剧情 / 喜剧
◎语  言 英语
◎上映日期 2020-10-16(美国)
◎IMDb评分 7/10 (20155人评价)
◎IMDb链接 https://www.imdb.com/title/tt8980602/
◎豆瓣评分 7.1/10 (3321人评价)
◎豆瓣链接 https://movie.douban.com/subject/35224342/
◎片  长 97分钟
◎导  演 埃文·摩根 Evan Morgan
◎编  剧 埃文·摩根 Evan Morgan
◎演  员 亚当·布罗迪 Adam Brody
       苏菲·奈丽丝 Sophie Nélisse
       莎拉·萨瑟兰 Sarah Sutherland
       杰西·诺亚·格鲁曼 Jesse Noah Gruman
       温迪·古逊 Wendy Crewson
       乔纳森·惠塔克 Jonathan Whittaker
       彼得·麦克内尔 Peter MacNeill
       丽莎·张 Lisa Truong
       索菲娅·韦伯斯特 Sophia Webster
       达拉斯·爱德华兹 Dallas Edwards
       马泰 Tzi Ma
       伊萨克·克拉顿 Isaac Kragten
       阿玛莉亚·威廉姆森 Amalia Williamson
       莎伦·克兰德尔 Sharon Crandall
       毛里斯·迪恩·温特 Maurice Dean Wint
◎简  介
    亚伯·阿普尔鲍姆是一名少年得志的侦探,如今已是31岁的成年人,却只是在处理一些无趣琐碎的案件并且被他最初的身份感所困扰。他的父母对此深感担忧,因为亚伯对与他同龄的人最相关的事情完全不感兴趣——比如经济稳定、成家。他们再也不能强迫他相信他比其他人都特别,并鼓励他放弃自己的做法。亚伯没有听从他们的建议,反而借着酒精来安抚自己的自尊心。亚伯在一所老派的侦探室里工作,当他还处于权力巅峰的时候,墙壁上挂着需要用相框装饰的剪报,纪念他曾经的功绩。直到某日,终于有客人带着一宗「成人」的案件上门——她的男朋友几周前被刺死-显然是暴力毒品的受害者,卡罗琳希望少年侦探替她找出谁凶残地谋杀了她的男朋友,挽回她男朋友的名誉,把凶手绳之以法。##### MediaInfo ######
General
Unique ID                                : 239824338884448772003988808996116062958 (0xB46C7CD1100B3AA109C53AECB4E162EE)
Complete name                            : The.Kid.Detective.2020.1080p.BluRay.x264.DTS-SONYHD.mkv
Duration                                 : 1 h 39 min
Overall bit rate                         : 8 866 kb/s
Video
ID                                       : 1
Format                                   : AVC
Format/Info                              : Advanced Video Codec
Format profile                           : [email protected]
Format settings                          : CABAC / 4 Ref Frames
Format settings, CABAC                   : Yes
Format settings, Reference frames        : 4 frames
Codec ID                                 : V_MPEG4/ISO/AVC
Duration                                 : 1 h 39 min
Bit rate                                 : 7 285 kb/s
Width                                    : 1 920 pixels
Height                                   : 804 pixels
Display aspect ratio                     : 2.40:1
Frame rate mode                          : Constant
Frame rate                               : 23.976 (24000/1001) FPS
Color space                              : YUV
Chroma subsampling                       : 4:2:0
Bit depth                                : 8 bits
Scan type                                : Progressive
Bits/(Pixel*Frame)                       : 0.197
Stream size                              : 5.09 GiB (82%)
Writing library                          : x264 core 164 r3085+55M 938b6d0 t_mod_New [(8 & 10)-bit@all X86_64]
Encoding settings                        : cabac=1 / ref=4 / deblock=1:-3:-3 / analyse=0x3:0x133 / me=umh / subme=11 / psy=1 / fade_compensate=0.00 / psy_rd=1.00:0.00 / mixed_ref=1 / me_range=48 / chroma_me=1 / trellis=2 / 8x8dct=1 / cqm=0 / deadzone=21,11 / fast_pskip=0 / chroma_qp_offset=-3 / threads=25 / lookahead_threads=6 / sliced_threads=0 / nr=0 / decimate=0 / interlaced=0 / bluray_compat=0 / constrained_intra=0 / fgo=0 / bframes=11 / b_pyramid=2 / b_adapt=2 / b_bias=0 / direct=3 / weightb=1 / open_gop=0 / weightp=2 / keyint=240 / keyint_min=1 / scenecut=40 / intra_refresh=0 / rc_lookahead=72 / rc=crf / mbtree=0 / crf=17.6600 / qcomp=0.67 / qpmin=0:0:0 / qpmax=69:69:69 / qpstep=4 / vbv_maxrate=62500 / vbv_bufsize=78125 / crf_max=0.0 / nal_hrd=none / filler=0 / ip_ratio=1.40 / pb_ratio=1.30 / aq=3:0.83 / aq-sensitivity=10.00 / aq-factor=1.00:1.00:1.00 / aq2=0 / aq3=0
Default                                  : Yes
Forced                                   : No
Audio
ID                                       : 2
ID in the original source medium         : 4352 (0x1100)
Format                                   : DTS
Format/Info                              : Digital Theater Systems
Codec ID                                 : A_DTS
Duration                                 : 1 h 39 min
Bit rate mode                            : Constant
Bit rate                                 : 1 509 kb/s
Channel(s)                               : 6 channels
Channel layout                           : C L R Ls Rs LFE
Sampling rate                            : 48.0 kHz
Frame rate                               : 93.750 FPS (512 SPF)
Bit depth                                : 24 bits
Compression mode                         : Lossy
Stream size                              : 1.05 GiB (17%)
Title                                    : English
Language                                 : English
Default                                  : Yes
Forced                                   : No
Original source medium                   : Blu-ray
Text #1
ID                                       : 3
ID in the original source medium         : 4610 (0x1202)
Format                                   : PGS
Muxing mode                              : zlib
Codec ID                                 : S_HDMV/PGS
Codec ID/Info                            : Picture based subtitle format used on BDs/HD-DVDs
Duration                                 : 1 h 35 min
Bit rate                                 : 43.1 kb/s
Frame rate                               : 0.342 FPS
Count of elements                        : 1949
Stream size                              : 29.3 MiB (0%)
Title                                    : chs&eng
Language                                 : Chinese
Default                                  : Yes
Forced                                   : No
Original source medium                   : Blu-ray
Text #2
ID                                       : 4
ID in the original source medium         : 4611 (0x1203)
Format                                   : PGS
Muxing mode                              : zlib
Codec ID                                 : S_HDMV/PGS
Codec ID/Info                            : Picture based subtitle format used on BDs/HD-DVDs
Duration                                 : 1 h 35 min
Bit rate                                 : 43.3 kb/s
Frame rate                               : 0.342 FPS
Count of elements                        : 1949
Stream size                              : 29.5 MiB (0%)
Title                                    : cht&eng
Language                                 : Chinese
Default                                  : No
Forced                                   : No
Original source medium                   : Blu-ray
Text #3
ID                                       : 5
ID in the original source medium         : 4612 (0x1204)
Format                                   : PGS
Muxing mode                              : zlib
Codec ID                                 : S_HDMV/PGS
Codec ID/Info                            : Picture based subtitle format used on BDs/HD-DVDs
Duration                                 : 1 h 35 min
Bit rate                                 : 25.2 kb/s
Frame rate                               : 0.342 FPS
Count of elements                        : 1949
Stream size                              : 17.1 MiB (0%)
Title                                    : chs
Language                                 : Chinese
Default                                  : No
Forced                                   : No
Original source medium                   : Blu-ray
Text #4
ID                                       : 6
ID in the original source medium         : 4613 (0x1205)
Format                                   : PGS
Muxing mode                              : zlib
Codec ID                                 : S_HDMV/PGS
Codec ID/Info                            : Picture based subtitle format used on BDs/HD-DVDs
Duration                                 : 1 h 35 min
Bit rate                                 : 25.4 kb/s
Frame rate                               : 0.342 FPS
Count of elements                        : 1949
Stream size                              : 17.3 MiB (0%)
Title                                    : cht
Language                                 : Chinese
Default                                  : No
Forced                                   : No
Original source medium                   : Blu-ray
Text #5
ID                                       : 7
ID in the original source medium         : 4608 (0x1200)
Format                                   : PGS
Muxing mode                              : zlib
Codec ID                                 : S_HDMV/PGS
Codec ID/Info                            : Picture based subtitle format used on BDs/HD-DVDs
Duration                                 : 1 h 32 min
Bit rate                                 : 26.0 kb/s
Frame rate                               : 0.349 FPS
Count of elements                        : 1940
Stream size                              : 17.3 MiB (0%)
Title                                    : eng
Language                                 : English
Default                                  : No
Forced                                   : No
Original source medium                   : Blu-ray
Menu
00:00:00.000                             : en:Chapter 01
00:09:05.294                             : en:Chapter 02
00:13:43.572                             : en:Chapter 03
00:21:12.062                             : en:Chapter 04
00:25:50.090                             : en:Chapter 05
00:32:44.462                             : en:Chapter 06
00:41:05.796                             : en:Chapter 07
00:51:01.892                             : en:Chapter 08
00:56:21.044                             : en:Chapter 09
01:01:43.991                             : en:Chapter 10
01:04:43.588                             : en:Chapter 11
01:08:18.928                             : en:Chapter 12
01:13:31.949                             : en:Chapter 13
01:18:15.357                             : en:Chapter 14
01:27:04.010                             : en:Chapter 15
01:29:50.301                             : en:Chapter 16
01:35:06.492                             : en:Chapter 17
01:39:43.644                             : en:Chapter 18
部分资源为软字幕,移动端推荐播放器:MxPlayer,nPlayer,infuse ,其他播放器请自行尝试。
部分资源为软字幕,电脑端推荐播放器:PotPlayer,完美解码,KMPLAYER,其他播放器请自行尝试。
下载端推荐纯BT下载软件:qBittorrent,Bitcomet,uTorrent ,其他下载软件请自行尝试。不支持吸血迅雷。






~~~~~~~~~~~~~~~~~~~~~~~~~~~~~~~~~~~~~~~~~
[2020][其它][剧情][BD-1080P]少年侦探[简繁英字幕].The.Kid.Detective.2020.1080p.BluRay.x264.DTS- 6.19GB

【文件列表】:


The.Kid.Detective.2020.1080p.BluRay.x264.DTS-SONYHD.



【下载地址列表】:


游客
文件下载链接就在这里,在您回复评论成功后才能显示。
请勿回复无意义的灌水内容。


下拉页面到最底部回复或者【点击此处快捷回复】,回复后返回此处即可查看下载链接。
如您没注册本站会员,可以点击注册本站,注册后即可回复下载。



软字幕无法在截图上展现,HDR版本/杜比视界版本截图会出现颜色异常,请使用支持的设备播放!






[img][/img]






[img][/img]

(HDR版本/杜比视界版本,截图会出现颜色异常,请使用支持的设备播放)

小贴士:【影视自媒体解说文案请移步:夏至文案解说网 www.xiazhi.vip

上一篇:[2011][其它][喜剧][BD-1080P]国民警卫队[国英多音轨/中文字幕].The.Guard.2011.BluRay.1080p.AAC.2Audio.x264- 2.95GB
下一篇:[2020][其它][剧情][BD-1080P]少年侦探[简繁英字幕].The.Kid.Detective.2020.1080p.BluRay.x265.10bit.DTS- 4.20GB
回复

使用道具 举报

您需要登录后才可以回帖 登录 | 立即注册

本版积分规则

Archiver|手机版|小众纪录片影视聚合

GMT+8, 2024-7-17 00:07 , Processed in 0.356044 second(s), 12 queries , Gzip On, Redis On.

Powered by 小众纪录片影视聚合 @2010-2023

Copyright © 2010-2024, https://www.xzjlp.com/.


免责说明:本站所有内容链接、图文介绍等均来自于互联网网友分享,本站仅支持web页面展示和文字介绍,绝不提供在线观看和存储服务,也不参与录制、上传、压片。若本站收录内容无意侵犯贵司版权,请发邮件到【a885185#163.com】联系本站,我们将在第一时间删除侵权内容。谢谢!

快速回复 返回顶部 返回列表