小众纪录片影视聚合

 找回密码
 立即注册
查看: 5|回复: 0

[蓝光电影] [2014][大陆][剧情][BD-1080P]智取威虎山[国语音轨/简繁英字幕].The.Taking.of.Tiger.Mountain.2014.1080p.BluRay.x265.10bit.DTS-

[复制链接]

116万

主题

116万

帖子

116万

积分

超级版主

Rank: 8Rank: 8

积分
1167997
发表于 2024-7-9 21:36:27 | 显示全部楼层 |阅读模式


[2014][大陆][剧情][BD-1080P]智取威虎山[国语音轨/简繁英字幕].The.Taking.of.Tiger.Mountain.2014.1080p.BluRay.x265.10bit.DTS-

完整标题:智取威虎山[国语音轨/简繁英字幕].The.Taking.of.Tiger.Mountain.2014.1080p.BluRay.x265.10bit.DTS-SONYHD 9.59GB
◎标  题 智取威虎山
◎译  名 智取威虎山3D / 林海雪原3D / The Taking of Tiger Mountain / Tracks in The Snowy Forest
◎年  代 2014
◎产  地 中国大陆 / 中国香港
◎类  别 剧情 / 动作 / 战争 / 冒险
◎语  言 汉语普通话 / 英语
◎上映日期 2014-12-23(中国大陆) / 2020-07-24(中国大陆重映)
◎IMDb评分 6.4/10 (3190人评价)
◎IMDb链接 https://www.imdb.com/title/tt3950078/
◎豆瓣评分 7.7/10 (384381人评价)
◎豆瓣链接 https://movie.douban.com/subject/10807909/
◎片  长 143分钟
◎导  演 徐克 Hark Tsui
◎编  剧 黄建新 Jianxin Huang
       李杨 Yang Li
       徐克 Hark Tsui
       吴兵 Bing Wu
       董哲 Zhe Dong
       林启安 Qi-an Lin
       曲波 Bo Qu
◎演  员 张涵予 Hanyu Zhang
       梁家辉 Tony Leung
       林更新 Gengxin Lin
       余男 Nan Yu
       佟丽娅 Liya Tong
       韩庚 Han geng
       陈晓 Xiao Chen
       谢苗 Miu Tse
       吴旭东 Xudong Wu
       杜奕衡 John Do
       海一天 Yitian Hai
       张立 Li Zhang
       释彦能 Yanneng Shi
       孙蛟龙 Jiaolong Sun
       程思寒 Sihan Cheng
       元武 Wu Yuan
       肖轶 Yi Xiao
       王尧 Yao Wang
       杨一威 Yiwei Yang
       苏翊鸣 Yiming Su
       胡东 Dong Hu
       于柏林 Bolin Yu
       姜广涛 Guangtao Jiang
       张予曦 Yuxi Zhang
       李庸基 Yong-Gi Lee
       李炳渊 Bingyuan Li
       张永达 Yongda Zhang
       金池
       韩飞行 Feixing Han
       吕中 Zhong Lü
       初俊辰 Junchen Chu
       于博宁 Boning Yu
◎简  介
    1947年冬,为了从土匪手中夺取控制东北九岭上万先遣军的分布图,东北民主联军203小分队队长少剑波(林更新 饰)委派侦查员杨子荣(张涵予 饰)卧底潜入最大的土匪山头“威虎山”。杨子荣凭借自己的机智应变获得了匪首座山雕(梁家辉 饰)和座下八大金刚的赏识,被封为威虎山“老九”。座山雕天生多疑,多次派人试探杨子荣,杨子荣一面与土匪多方周旋,一面涉险为山下战友传出情报。一波未平一波又起,被203小分队生擒的土匪联络副官栾平(杜奕衡 饰)趁乱逃脱,知道杨子荣卧底详情的他竟出现在威虎寨中与杨子荣当面对质,杨子荣腹背受敌陷入全面危机......##### MediaInfo ######
General
Unique ID                                : 148886690064861442214617389739410588109 (0x70028891994CDE13F759C02FB46201CD)
Complete name                            : The.Taking.of.Tiger.Mountain.2014.1080p.BluRay.x265.10bit.DTS-SONYHD.mkv
Duration                                 : 2 h 22 min
Overall bit rate                         : 9 620 kb/s
Video
ID                                       : 1
Format                                   : HEVC
Format/Info                              : High Efficiency Video Coding
Format profile                           : Main 10@L5@Main
Codec ID                                 : V_MPEGH/ISO/HEVC
Duration                                 : 2 h 22 min
Bit rate                                 : 8 046 kb/s
Width                                    : 1 920 pixels
Height                                   : 1 036 pixels
Display aspect ratio                     : 1.85:1
Frame rate mode                          : Constant
Frame rate                               : 24.000 FPS
Color space                              : YUV
Chroma subsampling                       : 4:2:0
Bit depth                                : 10 bits
Bits/(Pixel*Frame)                       : 0.169
Stream size                              : 8.02 GiB (84%)
Writing library                          : x265 3.5g2b25c9ba0+45:[Windows][GCC 10.2.0][64 bit] Yuuki 10bit+8bit+12bit
Encoding settings                        : rc=crf / crf=20.5900 / qcomp=0.60 / qpstep=4 / stats-write=0 / stats-read=0 / no-lossless / no-cu-lossless / aq-mode=3 / aq-strength=0.90 / cbqpoffs=0 / crqpoffs=0 / ipratio=1.40 / pbratio=1.30 / psy-rd=2.00 / psy-rdoq=0.00 / deblock=0:0 / ref=6 / limit-refs=1 / no-limit-modes / bframes=8 / b-adapt=2 / bframe-bias=0 / b-pyramid / b-intra / weightp / weightb / min-keyint=24 / max-keyint=240 / rc-lookahead=24 / gop-lookahead=0 / scenecut=40 / hist-scenecut=0 / radl=0 / max-cu-size=64 / min-cu-size=8 / me=3 / subme=7 / merange=48 / rdoq-level=0 / rd=4 / rdpenalty=0 / dynamic-rd=0.00 / no-rd-refine / ----- / cutree / sao / no-rect / no-amp / no-open-gop / wpp / no-pmode / no-pme / no-psnr / no-ssim / nr-intra=0 / nr-inter=0 / no-constrained-intra / no-strong-intra-smoothing / max-tu-size=32 / tu-inter-depth=1 / tu-intra-depth=1 / limit-tu=0 / qg-size=32 / qpmax=69 / qpmin=0 / ----- / cpuid=1111039 / frame-threads=5 / numa-pools=+ / log-level=2 / input-csp=1 / input-res=1920x1036 / interlace=0 / level-idc=0 / high-tier=1 / uhd-bd=0 / no-allow-non-conformance / repeat-headers / aud / no-hrd / info / hash=0 / no-temporal-layers / lookahead-slices=0 / no-splice / no-intra-refresh / no-ssim-rd / signhide / no-tskip / max-merge=3 / temporal-mvp / no-frame-dup / no-hme / no-analyze-src-pics / no-sao-non-deblock / selective-sao=4 / early-skip / rskip / no-fast-intra / no-tskip-fast / no-splitrd-skip / zone-count=0 / no-strict-cbr / no-rc-grain / no-const-vbv / sar=0 / overscan=0 / videoformat=5 / range=0 / colorprim=2 / transfer=2 / colormatrix=2 / chromaloc=0 / display-window=0 / cll=0,0 / min-luma=0 / max-luma=1023 / log2-max-poc-lsb=8 / vui-timing-info / vui-hrd-info / slices=1 / no-opt-qp-pps / no-opt-ref-list-length-pps / no-multi-pass-opt-rps / scenecut-bias=0.05 / hist-threshold=0.03 / no-opt-cu-delta-qp / no-aq-motion / no-hdr10 / no-hdr10-opt / no-dhdr10-opt / no-idr-recovery-sei / analysis-reuse-level=0 / analysis-save-reuse-level=0 / analysis-load-reuse-level=0 / scale-factor=0 / refine-intra=0 / refine-inter=0 / refine-mv=1 / refine-ctu-distortion=0 / no-limit-sao / ctu-info=0 / no-lowpass-dct / refine-analysis-type=0 / copy-pic=1 / max-ausize-factor=1.0 / no-dynamic-refine / no-single-sei / no-hevc-aq / no-svt / no-field / qp-adaptation-range=1.00 / scenecut-aware-qp=0conformance-window-offsets / right=0 / bottom=0 / decoder-max-rate=0 / no-vbv-live-multi-pass
Default                                  : Yes
Forced                                   : No
Audio
ID                                       : 2
Format                                   : DTS
Format/Info                              : Digital Theater Systems
Codec ID                                 : A_DTS
Duration                                 : 2 h 22 min
Bit rate mode                            : Constant
Bit rate                                 : 1 509 kb/s
Channel(s)                               : 6 channels
Channel layout                           : C L R Ls Rs LFE
Sampling rate                            : 48.0 kHz
Frame rate                               : 93.750 FPS (512 SPF)
Bit depth                                : 16 bits
Compression mode                         : Lossy
Stream size                              : 1.50 GiB (16%)
Title                                    : Chinese
Language                                 : Chinese
Default                                  : Yes
Forced                                   : No
Text #1
ID                                       : 3
Format                                   : PGS
Muxing mode                              : zlib
Codec ID                                 : S_HDMV/PGS
Codec ID/Info                            : Picture based subtitle format used on BDs/HD-DVDs
Duration                                 : 2 h 13 min
Bit rate                                 : 24.5 kb/s
Frame rate                               : 0.416 FPS
Count of elements                        : 3346
Stream size                              : 23.5 MiB (0%)
Title                                    : chs&eng
Language                                 : Chinese
Default                                  : Yes
Forced                                   : No
Text #2
ID                                       : 4
Format                                   : PGS
Muxing mode                              : zlib
Codec ID                                 : S_HDMV/PGS
Codec ID/Info                            : Picture based subtitle format used on BDs/HD-DVDs
Duration                                 : 2 h 15 min
Bit rate                                 : 37.5 kb/s
Frame rate                               : 0.451 FPS
Count of elements                        : 3662
Stream size                              : 36.3 MiB (0%)
Title                                    : cht&eng
Language                                 : Chinese
Default                                  : No
Forced                                   : No
Text #3
ID                                       : 5
Format                                   : PGS
Muxing mode                              : zlib
Codec ID                                 : S_HDMV/PGS
Codec ID/Info                            : Picture based subtitle format used on BDs/HD-DVDs
Duration                                 : 2 h 15 min
Bit rate                                 : 37.6 kb/s
Frame rate                               : 0.451 FPS
Count of elements                        : 3662
Stream size                              : 36.4 MiB (0%)
Title                                    : chs
Language                                 : Chinese
Default                                  : No
Forced                                   : No
Text #4
ID                                       : 6
Format                                   : PGS
Muxing mode                              : zlib
Codec ID                                 : S_HDMV/PGS
Codec ID/Info                            : Picture based subtitle format used on BDs/HD-DVDs
Duration                                 : 2 h 15 min
Bit rate                                 : 22.3 kb/s
Frame rate                               : 0.451 FPS
Count of elements                        : 3662
Stream size                              : 21.6 MiB (0%)
Title                                    : cht
Language                                 : Chinese
Default                                  : No
Forced                                   : No
Text #5
ID                                       : 7
Format                                   : PGS
Muxing mode                              : zlib
Codec ID                                 : S_HDMV/PGS
Codec ID/Info                            : Picture based subtitle format used on BDs/HD-DVDs
Duration                                 : 2 h 15 min
Bit rate                                 : 22.4 kb/s
Frame rate                               : 0.451 FPS
Count of elements                        : 3662
Stream size                              : 21.7 MiB (0%)
Title                                    : eng
Language                                 : English
Default                                  : No
Forced                                   : No
Menu
00:00:00.000                             : en:Chapter 01
00:10:41.042                             : en:Chapter 02
00:21:46.750                             : en:Chapter 03
00:27:39.583                             : en:Chapter 04
00:37:39.542                             : en:Chapter 05
00:50:31.458                             : en:Chapter 06
00:57:42.125                             : en:Chapter 07
01:04:41.917                             : en:Chapter 08
01:12:15.042                             : en:Chapter 09
01:20:34.458                             : en:Chapter 10
01:30:56.750                             : en:Chapter 11
01:36:44.208                             : en:Chapter 12
01:46:11.667                             : en:Chapter 13
01:52:11.583                             : en:Chapter 14
01:58:04.333                             : en:Chapter 15
02:09:07.750                             : en:Chapter 16
部分资源为软字幕,移动端推荐播放器:MxPlayer,nPlayer,infuse ,其他播放器请自行尝试。
部分资源为软字幕,电脑端推荐播放器:PotPlayer,完美解码,KMPLAYER,其他播放器请自行尝试。
下载端推荐纯BT下载软件:qBittorrent,Bitcomet,uTorrent ,其他下载软件请自行尝试。不支持吸血迅雷。






~~~~~~~~~~~~~~~~~~~~~~~~~~~~~~~~~~~~~~~~~
[2014][大陆][剧情][BD-1080P]智取威虎山[国语音轨/简繁英字幕].The.Taking.of.Tiger.Mountain.2014.1080p.BluRay.x265.10bit.DTS-

【文件列表】:


The.Taking.of.Tiger.Mountain.2014.1080p.BluRay.x265.10bit.DTS-SONYHD.



【下载地址列表】:


游客
文件下载链接就在这里,在您回复评论成功后才能显示。
请勿回复无意义的灌水内容。


下拉页面到最底部回复或者【点击此处快捷回复】,回复后返回此处即可查看下载链接。
如您没注册本站会员,可以点击注册本站,注册后即可回复下载。



软字幕无法在截图上展现,HDR版本/杜比视界版本截图会出现颜色异常,请使用支持的设备播放!






[img][/img]






[img][/img]

(HDR版本/杜比视界版本,截图会出现颜色异常,请使用支持的设备播放)

小贴士:【影视自媒体解说文案请移步:夏至文案解说网 www.xiazhi.vip

上一篇:[2024][大陆][剧情][WEB-1080P]热辣滚烫[国语音轨/中文字幕].YOLO.2024.1080p.WEB-DL.H264.AAC- 6.52GB
下一篇:[2024][大陆][剧情][WEB-1080P]灿烂的她[国语配音/中文字幕].Remember.Me.2024.1080p.WEB-DL.H265.10bit.DTS5.1- 1.46GB
回复

使用道具 举报

您需要登录后才可以回帖 登录 | 立即注册

本版积分规则

Archiver|手机版|小众纪录片影视聚合

GMT+8, 2024-7-25 02:29 , Processed in 0.084763 second(s), 12 queries , Gzip On, Redis On.

Powered by 小众纪录片影视聚合 @2010-2023

Copyright © 2010-2024, https://www.xzjlp.com/.


免责说明:本站所有内容链接、图文介绍等均来自于互联网网友分享,本站仅支持web页面展示和文字介绍,绝不提供在线观看和存储服务,也不参与录制、上传、压片。若本站收录内容无意侵犯贵司版权,请发邮件到【a885185#163.com】联系本站,我们将在第一时间删除侵权内容。谢谢!

快速回复 返回顶部 返回列表