小众纪录片影视聚合

 找回密码
 立即注册
查看: 2|回复: 0

[蓝光电影] [2022][欧美][喜剧][BD-1080P]天堂里的圣诞节[中文字幕].Christmas.in.Paradise.2022.BluRay.REMUX.1080p.AVC.DTS-HD.MA5.1-Dre

[复制链接]

112万

主题

112万

帖子

112万

积分

超级版主

Rank: 8Rank: 8

积分
1128817
发表于 2024-7-9 21:37:38 | 显示全部楼层 |阅读模式


[2022][欧美][喜剧][BD-1080P]天堂里的圣诞节[中文字幕].Christmas.in.Paradise.2022.BluRay.REMUX.1080p.AVC.DTS-HD.MA5.1-Dre

完整标题:天堂里的圣诞节[中文字幕].Christmas.in.Paradise.2022.BluRay.REMUX.1080p.AVC.DTS-HD.MA5.1-DreamHD 19.21GB
◎标  题 天堂里的圣诞节
◎译  名 天堂圣诞节
◎片  名 Christmas in Paradise
◎年  代 2022
◎产  地 美国
◎类  别 喜剧
◎语  言 英语
◎上映日期 2022-11-12(美国)
◎IMDb评分 3.5/10 (422人评价)
◎IMDb链接 https://www.imdb.com/title/tt22309256/
◎豆瓣链接 https://movie.douban.com/subject/36149752/
◎片  长 88分钟
◎导  演 菲利普·马丁内斯 Philippe Martinez
◎编  剧 菲利普·马丁内斯 Philippe Martinez
◎演  员 凯尔希·格兰莫 Kelsey Grammer
       伊丽莎白·赫利 Elizabeth Hurley
       比利·雷·赛勒斯 Billy Ray Cyrus
       娜塔莉·考克斯 Nathalie Cox
       纳奥米·弗雷德里克 Naomi Frederick
◎简  介
    Joanna's holiday is shattered when her sisters tell her that their dad has dumped, he isn't responding to any calls and disappeared to a Caribbean island. The sisters decide to go to save their father and bring him home for Christmas.##### MediaInfo ######
General
Unique ID                                : 245952850450530484202809967381486562357 (0xB908CBC3F83103C0C527B3356290EC35)
Complete name                            : Christmas.in.Paradise.2022.BluRay.REMUX.1080p.AVC.DTS-HD.MA5.1-DreamHD.mkv
Duration                                 : 1 h 28 min
Overall bit rate mode                    : Variable
Overall bit rate                         : 31.0 Mb/s
Video
ID                                       : 1
ID in the original source medium         : 4113 (0x1011)
Format                                   : AVC
Format/Info                              : Advanced Video Codec
Format profile                           : [email protected]
Format settings                          : CABAC / 4 Ref Frames
Format settings, CABAC                   : Yes
Format settings, Reference frames        : 4 frames
Codec ID                                 : V_MPEG4/ISO/AVC
Duration                                 : 1 h 28 min
Bit rate mode                            : Variable
Bit rate                                 : 27.0 Mb/s
Maximum bit rate                         : 35.0 Mb/s
Width                                    : 1 920 pixels
Height                                   : 1 080 pixels
Display aspect ratio                     : 16:9
Frame rate mode                          : Constant
Frame rate                               : 23.976 (24000/1001) FPS
Standard                                 : NTSC
Color space                              : YUV
Chroma subsampling                       : 4:2:0
Bit depth                                : 8 bits
Scan type                                : Progressive
Bits/(Pixel*Frame)                       : 0.543
Stream size                              : 16.7 GiB (87%)
Default                                  : Yes
Forced                                   : No
Color range                              : Limited
Color primaries                          : BT.709
Transfer characteristics                 : BT.709
Matrix coefficients                      : BT.709
Original source medium                   : Blu-ray
Audio
ID                                       : 2
ID in the original source medium         : 4352 (0x1100)
Format                                   : DTS XLL
Format/Info                              : Digital Theater Systems
Commercial name                          : DTS-HD Master Audio
Codec ID                                 : A_DTS
Duration                                 : 1 h 28 min
Bit rate mode                            : Variable
Bit rate                                 : 3 892 kb/s
Channel(s)                               : 6 channels
Channel layout                           : C L R Ls Rs LFE
Sampling rate                            : 48.0 kHz
Frame rate                               : 93.750 FPS (512 SPF)
Bit depth                                : 24 bits
Compression mode                         : Lossless
Stream size                              : 2.41 GiB (13%)
Language                                 : English
Default                                  : Yes
Forced                                   : No
Original source medium                   : Blu-ray
Text #1
ID                                       : 3
ID in the original source medium         : 4608 (0x1200)
Format                                   : PGS
Muxing mode                              : zlib
Codec ID                                 : S_HDMV/PGS
Codec ID/Info                            : Picture based subtitle format used on BDs/HD-DVDs
Duration                                 : 1 h 27 min
Bit rate                                 : 39.8 kb/s
Frame rate                               : 0.475 FPS
Count of elements                        : 2494
Stream size                              : 24.9 MiB (0%)
Language                                 : English
Default                                  : Yes
Forced                                   : No
Original source medium                   : Blu-ray
Text #2
ID                                       : 4
ID in the original source medium         : 4612 (0x1204)
Format                                   : PGS
Muxing mode                              : zlib
Codec ID                                 : S_HDMV/PGS
Codec ID/Info                            : Picture based subtitle format used on BDs/HD-DVDs
Duration                                 : 1 h 21 min
Bit rate                                 : 25.6 kb/s
Frame rate                               : 0.436 FPS
Count of elements                        : 2139
Stream size                              : 15.0 MiB (0%)
Language                                 : Chinese
Default                                  : Yes
Forced                                   : No
Original source medium                   : Blu-ray
Text #3
ID                                       : 5
ID in the original source medium         : 4613 (0x1205)
Format                                   : PGS
Muxing mode                              : zlib
Codec ID                                 : S_HDMV/PGS
Codec ID/Info                            : Picture based subtitle format used on BDs/HD-DVDs
Duration                                 : 1 h 21 min
Bit rate                                 : 26.3 kb/s
Frame rate                               : 0.436 FPS
Count of elements                        : 2139
Stream size                              : 15.4 MiB (0%)
Language                                 : Chinese
Default                                  : Yes
Forced                                   : No
Original source medium                   : Blu-ray
Text #4
ID                                       : 6
ID in the original source medium         : 4614 (0x1206)
Format                                   : PGS
Muxing mode                              : zlib
Codec ID                                 : S_HDMV/PGS
Codec ID/Info                            : Picture based subtitle format used on BDs/HD-DVDs
Duration                                 : 1 h 21 min
Bit rate                                 : 45.2 kb/s
Frame rate                               : 0.436 FPS
Count of elements                        : 2139
Stream size                              : 26.4 MiB (0%)
Language                                 : Chinese
Default                                  : Yes
Forced                                   : No
Original source medium                   : Blu-ray
Text #5
ID                                       : 7
ID in the original source medium         : 4615 (0x1207)
Format                                   : PGS
Muxing mode                              : zlib
Codec ID                                 : S_HDMV/PGS
Codec ID/Info                            : Picture based subtitle format used on BDs/HD-DVDs
Duration                                 : 1 h 21 min
Bit rate                                 : 45.9 kb/s
Frame rate                               : 0.436 FPS
Count of elements                        : 2139
Stream size                              : 26.8 MiB (0%)
Language                                 : Chinese
Default                                  : Yes
Forced                                   : No
Original source medium                   : Blu-ray
Menu
00:00:00.000                             : en:Chapter 01
00:07:47.467                             : en:Chapter 02
00:16:14.598                             : en:Chapter 03
00:22:17.336                             : en:Chapter 04
00:29:34.773                             : en:Chapter 05
00:38:02.280                             : en:Chapter 06
00:45:08.706                             : en:Chapter 07
00:54:44.281                             : en:Chapter 08
01:02:10.727                             : en:Chapter 09
01:10:08.204                             : en:Chapter 10
01:18:06.682                             : en:Chapter 11
01:24:10.045                             : en:Chapter 12
部分资源为软字幕,移动端推荐播放器:MxPlayer,nPlayer,infuse ,其他播放器请自行尝试。
部分资源为软字幕,电脑端推荐播放器:PotPlayer,完美解码,KMPLAYER,其他播放器请自行尝试。
下载端推荐纯BT下载软件:qBittorrent,Bitcomet,uTorrent ,其他下载软件请自行尝试。不支持吸血迅雷。






~~~~~~~~~~~~~~~~~~~~~~~~~~~~~~~~~~~~~~~~~
[2022][欧美][喜剧][BD-1080P]天堂里的圣诞节[中文字幕].Christmas.in.Paradise.2022.BluRay.REMUX.1080p.AVC.DTS-HD.MA5.1-Dre

【文件列表】:


Christmas.in.Paradise.2022.BluRay.REMUX.1080p.AVC.DTS-HD.MA5.1-DreamHD.



【下载地址列表】:


游客
文件下载链接就在这里,在您回复评论成功后才能显示。
请勿回复无意义的灌水内容。


下拉页面到最底部回复或者【点击此处快捷回复】,回复后返回此处即可查看下载链接。
如您没注册本站会员,可以点击注册本站,注册后即可回复下载。



软字幕无法在截图上展现,HDR版本/杜比视界版本截图会出现颜色异常,请使用支持的设备播放!






[img][/img]






[img][/img]

(HDR版本/杜比视界版本,截图会出现颜色异常,请使用支持的设备播放)

小贴士:【影视自媒体解说文案请移步:夏至文案解说网 www.xiazhi.vip

上一篇:[2016][欧美][剧情][WEB-1080P]克里斯汀[简繁英字幕].Christine.2016.1080p.iTunes.WEB-DL.DD5.1.H264- 5.93GB
下一篇:[2022][欧美][剧情][BD-1080P]报丧女妖[中文字幕].Code.Name.Banshee.2022.BluRay.REMUX.1080p.AVC.DTS-HD.MA5.1- 19
回复

使用道具 举报

您需要登录后才可以回帖 登录 | 立即注册

本版积分规则

Archiver|手机版|小众纪录片影视聚合

GMT+8, 2024-7-17 00:24 , Processed in 0.197849 second(s), 12 queries , Gzip On, Redis On.

Powered by 小众纪录片影视聚合 @2010-2023

Copyright © 2010-2024, https://www.xzjlp.com/.


免责说明:本站所有内容链接、图文介绍等均来自于互联网网友分享,本站仅支持web页面展示和文字介绍,绝不提供在线观看和存储服务,也不参与录制、上传、压片。若本站收录内容无意侵犯贵司版权,请发邮件到【a885185#163.com】联系本站,我们将在第一时间删除侵权内容。谢谢!

快速回复 返回顶部 返回列表