小众纪录片影视聚合

 找回密码
 立即注册
查看: 11|回复: 0

[蓝光电影] [2022][其它][剧情][BD-1080P]吉吉和内特[中文字幕].Gigi.&.Nate.2022.BluRay.REMUX.1080p.AVC.DTS-HD.MA5.1- 20.

[复制链接]

116万

主题

116万

帖子

116万

积分

超级版主

Rank: 8Rank: 8

积分
1167997
发表于 2024-7-9 21:39:27 | 显示全部楼层 |阅读模式


[2022][其它][剧情][BD-1080P]吉吉和内特[中文字幕].Gigi.&.Nate.2022.BluRay.REMUX.1080p.AVC.DTS-HD.MA5.1- 20.

完整标题:吉吉和内特[中文字幕].Gigi.&.Nate.2022.BluRay.REMUX.1080p.AVC.DTS-HD.MA5.1-DreamHD 20.61GB
◎标  题 吉吉和内特
◎译  名 吉吉&内特
◎片  名 Gigi & Nate
◎年  代 2022
◎产  地 瑞士 / 英国 / 美国
◎类  别 剧情
◎语  言 英语
◎上映日期 2022-09-02(美国)
◎IMDb评分 6.7/10 (1384人评价)
◎IMDb链接 https://www.imdb.com/title/tt10341196/
◎豆瓣评分 7.0/10 (532人评价)
◎豆瓣链接 https://movie.douban.com/subject/35788189/
◎片  长 114分钟
◎导  演 尼克·哈姆 Nick Hamm
◎编  剧 尼克·哈姆 Nick Hamm
◎演  员 查理·罗 Charlie Rowe
       佐伊·玛格丽特·科莱蒂 Zoe Margaret Colletti
       马西娅·盖伊·哈登 Marcia Gay Harden
       约瑟芬·兰福德 Josephine Langford
       詹姆斯·贝鲁什 James Belushi
       戴安·拉德 Diane Ladd
       塔拉·萨莫斯 Tara Summers
       汉娜·阿利古德 Hannah Alligood
       奥利·索罗坦 Olly Sholotan
       米歇尔·普拉达 Mishel Prada
       莎莎·康普 Sasha Compère
       莎拉· 斯托弗 Sarah Stouffer
       马丽娅豪厄尔 Maria Howell
       林赛·艾利夫 Lindsay Ayliffe
       艾米利奥·加西亚-桑切斯 Emilio Garcia-Sanchez
       Katie Layman Katie Layman
       Bruce Irvine Bruce Irvine
       小唐纳德·诺里斯 Donald Norris Jr.
◎简  介
    A young man with a bright future suffers a near fatal accident and recreates his new life with the help of an unlikely animal friend.##### MediaInfo ######
General
Unique ID                                : 194034711710557047794719710103248559383 (0x91F9B9E53048B60BC9EF6E0E1DEBDD17)
Complete name                            : Gigi.&.Nate.2022.BluRay.REMUX.1080p.AVC.DTS-HD.MA5.1-DreamHD.mkv
Duration                                 : 1 h 54 min
Overall bit rate mode                    : Variable
Overall bit rate                         : 25.8 Mb/s
Video
ID                                       : 1
ID in the original source medium         : 4113 (0x1011)
Format                                   : AVC
Format/Info                              : Advanced Video Codec
Format profile                           : [email protected]
Format settings                          : CABAC / 4 Ref Frames
Format settings, CABAC                   : Yes
Format settings, Reference frames        : 4 frames
Codec ID                                 : V_MPEG4/ISO/AVC
Duration                                 : 1 h 54 min
Bit rate mode                            : Variable
Bit rate                                 : 22.0 Mb/s
Maximum bit rate                         : 35.0 Mb/s
Width                                    : 1 920 pixels
Height                                   : 1 080 pixels
Display aspect ratio                     : 16:9
Frame rate mode                          : Constant
Frame rate                               : 23.976 (24000/1001) FPS
Standard                                 : NTSC
Color space                              : YUV
Chroma subsampling                       : 4:2:0
Bit depth                                : 8 bits
Scan type                                : Progressive
Bits/(Pixel*Frame)                       : 0.442
Stream size                              : 17.6 GiB (85%)
Default                                  : Yes
Forced                                   : No
Color range                              : Limited
Color primaries                          : BT.709
Transfer characteristics                 : BT.709
Matrix coefficients                      : BT.709
Original source medium                   : Blu-ray
Audio
ID                                       : 2
ID in the original source medium         : 4352 (0x1100)
Format                                   : DTS XLL
Format/Info                              : Digital Theater Systems
Commercial name                          : DTS-HD Master Audio
Codec ID                                 : A_DTS
Duration                                 : 1 h 54 min
Bit rate mode                            : Variable
Bit rate                                 : 3 672 kb/s
Channel(s)                               : 6 channels
Channel layout                           : C L R Ls Rs LFE
Sampling rate                            : 48.0 kHz
Frame rate                               : 93.750 FPS (512 SPF)
Bit depth                                : 24 bits
Compression mode                         : Lossless
Stream size                              : 2.94 GiB (14%)
Language                                 : English
Default                                  : Yes
Forced                                   : No
Original source medium                   : Blu-ray
Text #1
ID                                       : 3
ID in the original source medium         : 4608 (0x1200)
Format                                   : PGS
Muxing mode                              : zlib
Codec ID                                 : S_HDMV/PGS
Codec ID/Info                            : Picture based subtitle format used on BDs/HD-DVDs
Duration                                 : 1 h 47 min
Bit rate                                 : 40.7 kb/s
Frame rate                               : 0.572 FPS
Count of elements                        : 3704
Stream size                              : 31.4 MiB (0%)
Language                                 : English
Default                                  : Yes
Forced                                   : No
Original source medium                   : Blu-ray
Text #2
ID                                       : 4
ID in the original source medium         : 4609 (0x1201)
Format                                   : PGS
Muxing mode                              : zlib
Codec ID                                 : S_HDMV/PGS
Codec ID/Info                            : Picture based subtitle format used on BDs/HD-DVDs
Duration                                 : 1 h 43 min
Bit rate                                 : 26.3 kb/s
Frame rate                               : 0.493 FPS
Count of elements                        : 3067
Stream size                              : 19.5 MiB (0%)
Language                                 : Chinese
Default                                  : Yes
Forced                                   : No
Original source medium                   : Blu-ray
Text #3
ID                                       : 5
ID in the original source medium         : 4610 (0x1202)
Format                                   : PGS
Muxing mode                              : zlib
Codec ID                                 : S_HDMV/PGS
Codec ID/Info                            : Picture based subtitle format used on BDs/HD-DVDs
Duration                                 : 1 h 43 min
Bit rate                                 : 26.9 kb/s
Frame rate                               : 0.493 FPS
Count of elements                        : 3067
Stream size                              : 19.9 MiB (0%)
Language                                 : Chinese
Default                                  : Yes
Forced                                   : No
Original source medium                   : Blu-ray
Text #4
ID                                       : 6
ID in the original source medium         : 4611 (0x1203)
Format                                   : PGS
Muxing mode                              : zlib
Codec ID                                 : S_HDMV/PGS
Codec ID/Info                            : Picture based subtitle format used on BDs/HD-DVDs
Duration                                 : 1 h 43 min
Bit rate                                 : 46.2 kb/s
Frame rate                               : 0.493 FPS
Count of elements                        : 3067
Stream size                              : 34.2 MiB (0%)
Language                                 : Chinese
Default                                  : Yes
Forced                                   : No
Original source medium                   : Blu-ray
Text #5
ID                                       : 7
ID in the original source medium         : 4612 (0x1204)
Format                                   : PGS
Muxing mode                              : zlib
Codec ID                                 : S_HDMV/PGS
Codec ID/Info                            : Picture based subtitle format used on BDs/HD-DVDs
Duration                                 : 1 h 43 min
Bit rate                                 : 46.8 kb/s
Frame rate                               : 0.493 FPS
Count of elements                        : 3067
Stream size                              : 34.7 MiB (0%)
Language                                 : Chinese
Default                                  : Yes
Forced                                   : No
Original source medium                   : Blu-ray
Menu
00:00:00.000                             : en:Chapter 01
00:06:20.922                             : en:Chapter 02
00:16:04.505                             : en:Chapter 03
00:25:23.063                             : en:Chapter 04
00:34:08.588                             : en:Chapter 05
00:41:11.010                             : en:Chapter 06
00:46:35.334                             : en:Chapter 07
00:51:30.253                             : en:Chapter 08
00:56:37.936                             : en:Chapter 09
01:04:45.423                             : en:Chapter 10
01:10:23.761                             : en:Chapter 11
01:19:37.314                             : en:Chapter 12
01:25:45.682                             : en:Chapter 13
01:35:47.283                             : en:Chapter 14
01:42:43.699                             : en:Chapter 15
01:46:45.941                             : en:Chapter 16
部分资源为软字幕,移动端推荐播放器:MxPlayer,nPlayer,infuse ,其他播放器请自行尝试。
部分资源为软字幕,电脑端推荐播放器:PotPlayer,完美解码,KMPLAYER,其他播放器请自行尝试。
下载端推荐纯BT下载软件:qBittorrent,Bitcomet,uTorrent ,其他下载软件请自行尝试。不支持吸血迅雷。






~~~~~~~~~~~~~~~~~~~~~~~~~~~~~~~~~~~~~~~~~
[2022][其它][剧情][BD-1080P]吉吉和内特[中文字幕].Gigi.&.Nate.2022.BluRay.REMUX.1080p.AVC.DTS-HD.MA5.1- 20.

【文件列表】:


Gigi.&.Nate.2022.BluRay.REMUX.1080p.AVC.DTS-HD.MA5.1-DreamHD.



【下载地址列表】:


游客
文件下载链接就在这里,在您回复评论成功后才能显示。
请勿回复无意义的灌水内容。


下拉页面到最底部回复或者【点击此处快捷回复】,回复后返回此处即可查看下载链接。
如您没注册本站会员,可以点击注册本站,注册后即可回复下载。



软字幕无法在截图上展现,HDR版本/杜比视界版本截图会出现颜色异常,请使用支持的设备播放!






[img][/img]






[img][/img]

(HDR版本/杜比视界版本,截图会出现颜色异常,请使用支持的设备播放)

小贴士:【影视自媒体解说文案请移步:夏至文案解说网 www.xiazhi.vip

上一篇:[更 早][欧美][剧情][WEB-4K]人鬼情未了[HDR/杜比视界双版本][国英多音轨/中文字幕].Ghost.1990.2160p.iTunes.WEB-DL.DD5.1.DV.HDR.H.265
下一篇:[2021][欧美][其它][WEB-1080P]女孩和派对[简繁英字幕].girls.and.the.party.2021.1080p.GagaOOLala.WEB-DL.AAC2.0.H.264-Dream
回复

使用道具 举报

您需要登录后才可以回帖 登录 | 立即注册

本版积分规则

Archiver|手机版|小众纪录片影视聚合

GMT+8, 2024-7-25 02:03 , Processed in 0.129089 second(s), 12 queries , Gzip On, Redis On.

Powered by 小众纪录片影视聚合 @2010-2023

Copyright © 2010-2024, https://www.xzjlp.com/.


免责说明:本站所有内容链接、图文介绍等均来自于互联网网友分享,本站仅支持web页面展示和文字介绍,绝不提供在线观看和存储服务,也不参与录制、上传、压片。若本站收录内容无意侵犯贵司版权,请发邮件到【a885185#163.com】联系本站,我们将在第一时间删除侵权内容。谢谢!

快速回复 返回顶部 返回列表