小众纪录片影视聚合

 找回密码
 立即注册
查看: 3|回复: 0

[蓝光电影] [更 早][欧美][动作][BD-4K]哥斯拉[国英多音轨/中文字幕/特效字幕].Godzilla.1998.UHD.BluRay.REMUX.2160p.HEVC.Atmos.TrueHD7.1.2

[复制链接]

113万

主题

113万

帖子

113万

积分

超级版主

Rank: 8Rank: 8

积分
1134020
发表于 2024-7-9 21:39:35 | 显示全部楼层 |阅读模式


[更 早][欧美][动作][BD-4K]哥斯拉[国英多音轨/中文字幕/特效字幕].Godzilla.1998.UHD.BluRay.REMUX.2160p.HEVC.Atmos.TrueHD7.1.2

完整标题:哥斯拉[国英多音轨/中文字幕/特效字幕].Godzilla.1998.UHD.BluRay.REMUX.2160p.HEVC.Atmos.TrueHD7.1.2Audio-DreamHD 56.13GB
◎标  题 哥斯拉
◎译  名 酷斯拉(台) / 怪兽哥斯拉
◎片  名 Godzilla
◎年  代 1998
◎产  地 美国 / 日本
◎类  别 动作 / 科幻 / 冒险 / 灾难
◎语  言 英语 / 法语 / 日语 / 俄语 / 西班牙语
◎上映日期 1998-05-20
◎IMDb评分 5.4/10 (197597人评价)
◎IMDb链接 https://www.imdb.com/title/tt0120685/
◎豆瓣评分 7.2/10 (80062人评价)
◎豆瓣链接 https://movie.douban.com/subject/1295292/
◎片  长 139 分钟
◎导  演 罗兰·艾默里奇 Roland Emmerich
◎编  剧 迪安·德夫林 Dean Devlin
       罗兰·艾默里奇 Roland Emmerich
       本多猪四郎  Ishirô Honda
       泰德·艾略特 Ted Elliott
◎演  员 马修·布罗德里克 Matthew Broderick
       让·雷诺 Jean Reno
       玛丽亚·皮提罗 Maria Pitillo
       汉克·阿扎利亚 Hank Azaria
       凯文·杜恩 Kevin Dunn
       南茜·卡特莱特 Nancy Cartwright
       德里克·韦伯斯特 Derek Webster
       哈里·谢尔 Harry Shearer
       弗兰克·布鲁因布鲁克 Frank Bruynbroek
       斯托尼·威斯特摩兰 Stoney Westmoreland
       道格·萨文特 Doug Savant
       丹尼尔·皮尔斯 Daniel Pearce
       加里·A·赫克 Gary A. Hecker
       洛拉·帕沙林斯基 Lola Pashalinski
       格伦·莫肖尔 Glenn Morshower
◎简  介
    这天,美国纽约附近出现了一些异常现象:太平洋上的海浪速度超乎寻常地惊人、巴哈马巨大的原始森林里竟然出现了一个类似恐龙脚印的巨大痕迹、动物们都惊慌失措,仿佛一股巨大的力量正向纽约席卷而来。                                    原来,世界上频繁的核试验引起的核辐射导致了气候异常和最终导致岛上蜥蜴变异。现在,它正以越来越快的步伐向纽约逼近。这下,所有的人都慌了神,美国全国的所有力量都联合了起来,目的只有一个,就是在它踏入纽约前将它干掉!##### MediaInfo ######
General
Unique ID                                : 301105902607910370779551729338228894315 (0xE286E32E60EF98001FA468F6F7D76A6B)
Complete name                            : Godzilla.1998.UHD.BluRay.REMUX.2160p.HEVC.Atmos.TrueHD7.1.2Audio-DreamHD.mkv
Duration                                 : 2 h 18 min
Overall bit rate mode                    : Variable
Overall bit rate                         : 57.9 Mb/s
Video
ID                                       : 1
ID in the original source medium         : 4113 (0x1011)
Format                                   : HEVC
Format/Info                              : High Efficiency Video Coding
Format profile                           : Main [email protected]@High
HDR format                               : SMPTE ST 2086, HDR10 compatible
Codec ID                                 : V_MPEGH/ISO/HEVC
Duration                                 : 2 h 18 min
Bit rate                                 : 50.0 Mb/s
Width                                    : 3 840 pixels
Height                                   : 2 160 pixels
Display aspect ratio                     : 16:9
Frame rate mode                          : Constant
Frame rate                               : 23.976 (24000/1001) FPS
Color space                              : YUV
Chroma subsampling                       : 4:2:0 (Type 2)
Bit depth                                : 10 bits
Bits/(Pixel*Frame)                       : 0.252
Stream size                              : 48.5 GiB (86%)
Default                                  : Yes
Forced                                   : No
Color range                              : Limited
Color primaries                          : BT.2020
Transfer characteristics                 : PQ
Matrix coefficients                      : BT.2020 non-constant
Mastering display color primaries        : Display P3
Mastering display luminance              : min: 0.0050 cd/m2, max: 4000 cd/m2
Maximum Content Light Level              : 10000 cd/m2
Maximum Frame-Average Light Level        : 768 cd/m2
Original source medium                   : Blu-ray
Audio #1
ID                                       : 2
ID in the original source medium         : 4352 (0x1100)
Format                                   : MLP FBA 16-ch
Format/Info                              : Meridian Lossless Packing FBA with 16-channel presentation
Commercial name                          : Dolby TrueHD with Dolby Atmos
Codec ID                                 : A_TRUEHD
Duration                                 : 2 h 18 min
Bit rate mode                            : Variable
Bit rate                                 : 4 138 kb/s
Maximum bit rate                         : 6 384 kb/s
Channel(s)                               : 8 channels
Channel layout                           : L R C LFE Ls Rs Lb Rb
Sampling rate                            : 48.0 kHz
Frame rate                               : 1 200.000 FPS (40 SPF)
Compression mode                         : Lossless
Stream size                              : 4.01 GiB (7%)
Language                                 : English
Default                                  : Yes
Forced                                   : No
Original source medium                   : Blu-ray
Number of dynamic objects                : 11
Bed channel count                        : 1 channel
Bed channel configuration                : LFE
Audio #2
ID                                       : 3
ID in the original source medium         : 4356 (0x1104)
Format                                   : DTS XLL
Format/Info                              : Digital Theater Systems
Commercial name                          : DTS-HD Master Audio
Codec ID                                 : A_DTS
Duration                                 : 2 h 18 min
Bit rate mode                            : Variable
Bit rate                                 : 3 263 kb/s
Channel(s)                               : 8 channels
Channel layout                           : C L R LFE Lb Rb Lss Rss
Sampling rate                            : 48.0 kHz
Frame rate                               : 93.750 FPS (512 SPF)
Bit depth                                : 16 bits
Compression mode                         : Lossless
Stream size                              : 3.16 GiB (6%)
Language                                 : Chinese
Default                                  : Yes
Forced                                   : No
Original source medium                   : Blu-ray
Text #1
ID                                       : 4
ID in the original source medium         : 4768 (0x12A0)
Format                                   : PGS
Muxing mode                              : zlib
Codec ID                                 : S_HDMV/PGS
Codec ID/Info                            : Picture based subtitle format used on BDs/HD-DVDs
Duration                                 : 2 h 17 min
Bit rate                                 : 30.2 kb/s
Frame rate                               : 0.380 FPS
Count of elements                        : 3142
Stream size                              : 29.7 MiB (0%)
Language                                 : English
Default                                  : Yes
Forced                                   : No
Original source medium                   : Blu-ray
Text #2
ID                                       : 5
ID in the original source medium         : 4773 (0x12A5)
Format                                   : PGS
Muxing mode                              : zlib
Codec ID                                 : S_HDMV/PGS
Codec ID/Info                            : Picture based subtitle format used on BDs/HD-DVDs
Duration                                 : 2 h 8 min
Bit rate                                 : 18.0 kb/s
Frame rate                               : 0.227 FPS
Count of elements                        : 1750
Stream size                              : 16.5 MiB (0%)
Language                                 : Chinese
Default                                  : Yes
Forced                                   : No
Original source medium                   : Blu-ray
Text #3
ID                                       : 6
ID in the original source medium         : 4774 (0x12A6)
Format                                   : PGS
Muxing mode                              : zlib
Codec ID                                 : S_HDMV/PGS
Codec ID/Info                            : Picture based subtitle format used on BDs/HD-DVDs
Duration                                 : 2 h 8 min
Bit rate                                 : 17.7 kb/s
Frame rate                               : 0.227 FPS
Count of elements                        : 1748
Stream size                              : 16.2 MiB (0%)
Language                                 : Chinese
Default                                  : Yes
Forced                                   : No
Original source medium                   : Blu-ray
Text #4
ID                                       : 7
ID in the original source medium         : 4775 (0x12A7)
Format                                   : PGS
Muxing mode                              : zlib
Codec ID                                 : S_HDMV/PGS
Codec ID/Info                            : Picture based subtitle format used on BDs/HD-DVDs
Duration                                 : 2 h 8 min
Bit rate                                 : 178 kb/s
Frame rate                               : 1.643 FPS
Count of elements                        : 12700
Stream size                              : 164 MiB (0%)
Language                                 : Chinese
Default                                  : Yes
Forced                                   : No
Original source medium                   : Blu-ray
Text #5
ID                                       : 8
ID in the original source medium         : 4776 (0x12A8)
Format                                   : PGS
Muxing mode                              : zlib
Codec ID                                 : S_HDMV/PGS
Codec ID/Info                            : Picture based subtitle format used on BDs/HD-DVDs
Duration                                 : 2 h 8 min
Bit rate                                 : 181 kb/s
Frame rate                               : 1.643 FPS
Count of elements                        : 12700
Stream size                              : 167 MiB (0%)
Language                                 : Chinese
Default                                  : Yes
Forced                                   : No
Original source medium                   : Blu-ray
Text #6
ID                                       : 9
ID in the original source medium         : 4777 (0x12A9)
Format                                   : PGS
Muxing mode                              : zlib
Codec ID                                 : S_HDMV/PGS
Codec ID/Info                            : Picture based subtitle format used on BDs/HD-DVDs
Duration                                 : 2 h 8 min
Bit rate                                 : 243 kb/s
Frame rate                               : 1.603 FPS
Count of elements                        : 12389
Stream size                              : 224 MiB (0%)
Language                                 : Chinese
Default                                  : Yes
Forced                                   : No
Original source medium                   : Blu-ray
Text #7
ID                                       : 10
ID in the original source medium         : 4778 (0x12AA)
Format                                   : PGS
Muxing mode                              : zlib
Codec ID                                 : S_HDMV/PGS
Codec ID/Info                            : Picture based subtitle format used on BDs/HD-DVDs
Duration                                 : 2 h 8 min
Bit rate                                 : 243 kb/s
Frame rate                               : 1.603 FPS
Count of elements                        : 12389
Stream size                              : 224 MiB (0%)
Language                                 : Chinese
Default                                  : Yes
Forced                                   : No
Original source medium                   : Blu-ray
Menu
00:00:00.000                             : en:Chapter 01
00:07:48.426                             : en:Chapter 02
00:17:25.461                             : en:Chapter 03
00:25:28.235                             : en:Chapter 04
00:36:53.836                             : en:Chapter 05
00:41:48.214                             : en:Chapter 06
00:48:19.730                             : en:Chapter 07
01:01:35.942                             : en:Chapter 08
01:11:06.095                             : en:Chapter 09
01:21:38.685                             : en:Chapter 10
01:30:26.212                             : en:Chapter 11
01:39:14.156                             : en:Chapter 12
01:50:24.159                             : en:Chapter 13
01:52:28.658                             : en:Chapter 14
02:00:36.771                             : en:Chapter 15
02:05:56.882                             : en:Chapter 16
部分资源为软字幕,移动端推荐播放器:MxPlayer,nPlayer,infuse ,其他播放器请自行尝试。
部分资源为软字幕,电脑端推荐播放器:PotPlayer,完美解码,KMPLAYER,其他播放器请自行尝试。
下载端推荐纯BT下载软件:qBittorrent,Bitcomet,uTorrent ,其他下载软件请自行尝试。不支持吸血迅雷。






~~~~~~~~~~~~~~~~~~~~~~~~~~~~~~~~~~~~~~~~~
[更 早][欧美][动作][BD-4K]哥斯拉[国英多音轨/中文字幕/特效字幕].Godzilla.1998.UHD.BluRay.REMUX.2160p.HEVC.Atmos.TrueHD7.1.2

【文件列表】:


Godzilla.1998.UHD.BluRay.REMUX.2160p.HEVC.Atmos.TrueHD7.1.2Audio-DreamHD.



【下载地址列表】:


游客
文件下载链接就在这里,在您回复评论成功后才能显示。
请勿回复无意义的灌水内容。


下拉页面到最底部回复或者【点击此处快捷回复】,回复后返回此处即可查看下载链接。
如您没注册本站会员,可以点击注册本站,注册后即可回复下载。



软字幕无法在截图上展现,HDR版本/杜比视界版本截图会出现颜色异常,请使用支持的设备播放!






[img][/img]






[img][/img]

(HDR版本/杜比视界版本,截图会出现颜色异常,请使用支持的设备播放)

小贴士:【影视自媒体解说文案请移步:夏至文案解说网 www.xiazhi.vip

上一篇:[2021][欧美][其它][WEB-1080P]女孩和派对[简繁英字幕].girls.and.the.party.2021.1080p.GagaOOLala.WEB-DL.AAC2.0.H.264-Dream
下一篇:[2022][台湾][剧情][WEB-1080P]GOODBYE, MY BABY[简繁英字幕].Goodbye.My.Baby.2022.1080p.GagaOOLala.WEB-DL.AAC2.0.H.26
回复

使用道具 举报

您需要登录后才可以回帖 登录 | 立即注册

本版积分规则

Archiver|手机版|小众纪录片影视聚合

GMT+8, 2024-7-20 16:51 , Processed in 0.075654 second(s), 12 queries , Gzip On, Redis On.

Powered by 小众纪录片影视聚合 @2010-2023

Copyright © 2010-2024, https://www.xzjlp.com/.


免责说明:本站所有内容链接、图文介绍等均来自于互联网网友分享,本站仅支持web页面展示和文字介绍,绝不提供在线观看和存储服务,也不参与录制、上传、压片。若本站收录内容无意侵犯贵司版权,请发邮件到【a885185#163.com】联系本站,我们将在第一时间删除侵权内容。谢谢!

快速回复 返回顶部 返回列表