小众纪录片影视聚合

 找回密码
 立即注册
查看: 12|回复: 0

[蓝光电影] [2014][欧美][剧情][BD-1080P]小型事故[中文字幕].Little.Accidents.2014.BluRay.REMUX.1080p.AVC.DTS-HD.MA5.1- 14.

[复制链接]

116万

主题

116万

帖子

116万

积分

超级版主

Rank: 8Rank: 8

积分
1167997
发表于 2024-7-9 21:39:58 | 显示全部楼层 |阅读模式


[2014][欧美][剧情][BD-1080P]小型事故[中文字幕].Little.Accidents.2014.BluRay.REMUX.1080p.AVC.DTS-HD.MA5.1- 14.

完整标题:小型事故[中文字幕].Little.Accidents.2014.BluRay.REMUX.1080p.AVC.DTS-HD.MA5.1-DreamHD 14.90GB
◎标  题 小型事故
◎片  名 Little Accidents
◎年  代 2014
◎产  地 美国
◎类  别 剧情
◎语  言 英语
◎上映日期 2014-01-22(美国)
◎IMDb评分 5.8/10 (3750人评价)
◎IMDb链接 https://www.imdb.com/title/tt3125220/
◎豆瓣评分 6.2/10 (321人评价)
◎豆瓣链接 https://movie.douban.com/subject/25708029/
◎片  长 105分钟
◎导  演 萨拉·科朗吉洛 Sara Colangelo
◎编  剧 萨拉·科朗吉洛 Sara Colangelo
◎演  员 伊丽莎白·班克斯 Elizabeth Banks
       科洛·塞维尼 Chloë Sevigny
       乔什·卢卡斯 Josh Lucas
       雅库布·洛弗兰德 Jacob Lofland
       波伊德·霍布鲁克 Boyd Holbrook
       艾莉克希娅·拉斯姆森 Alexia Rasmussen
       特拉维斯·托普 Travis Tope
◎简  介
    当一场矿难无情的降临在阿帕拉契山下的一座煤矿小城,三个迥然不同的当地人却因此莫名其妙地被卷入了复杂的秘密漩涡。阿莫斯·詹金斯,唯一的矿难幸存者,却成为调查过程的焦点。随着越来越多的对于谁来对这场灾难负责的疑问,一位煤矿高级主管的儿子失踪了。孩子的母亲戴安和他丈夫比尔遍寻无果,两个人也因此彼此疏远。最后他们只好向当地教堂寻求帮助,在教堂她发现阿莫斯是一个令人欣慰的朋友,她还见到了她儿子的同学欧文·布里格斯,她知道这个人在她的儿子失踪的时候曾经出现过。##### MediaInfo ######
General
Unique ID                                : 97143418030392479203854212220932501446 (0x4915244AF082E257AF163652B926AFC6)
Complete name                            : Little.Accidents.2014.BluRay.REMUX.1080p.AVC.DTS-HD.MA5.1-DreamHD.mkv
Duration                                 : 1 h 44 min
Overall bit rate mode                    : Variable
Overall bit rate                         : 20.4 Mb/s
Video
ID                                       : 1
ID in the original source medium         : 4113 (0x1011)
Format                                   : MPEG Video
Format version                           : Version 2
Format profile                           : Main@High
Format settings                          : CustomMatrix / BVOP
Format settings, BVOP                    : Yes
Format settings, Matrix                  : Custom
Format settings, GOP                     : M=3, N=15
Codec ID                                 : V_MPEG2
Codec ID/Info                            : MPEG 1 or 2 Video
Duration                                 : 1 h 44 min
Bit rate mode                            : Variable
Bit rate                                 : 17.7 Mb/s
Maximum bit rate                         : 25.0 Mb/s
Width                                    : 1 920 pixels
Height                                   : 1 080 pixels
Display aspect ratio                     : 16:9
Frame rate mode                          : Constant
Frame rate                               : 23.976 (24000/1001) FPS
Color space                              : YUV
Chroma subsampling                       : 4:2:0
Bit depth                                : 8 bits
Scan type                                : Progressive
Compression mode                         : Lossy
Bits/(Pixel*Frame)                       : 0.355
Time code of first frame                 : 00:00:00:00
Time code source                         : Group of pictures header
GOP, Open/Closed                         : Closed
Stream size                              : 12.9 GiB (87%)
Default                                  : Yes
Forced                                   : No
Original source medium                   : Blu-ray
Audio
ID                                       : 2
ID in the original source medium         : 4353 (0x1101)
Format                                   : DTS XLL
Format/Info                              : Digital Theater Systems
Commercial name                          : DTS-HD Master Audio
Codec ID                                 : A_DTS
Duration                                 : 1 h 44 min
Bit rate mode                            : Variable
Bit rate                                 : 2 628 kb/s
Channel(s)                               : 6 channels
Channel layout                           : C L R Ls Rs LFE
Sampling rate                            : 48.0 kHz
Frame rate                               : 93.750 FPS (512 SPF)
Bit depth                                : 24 bits
Compression mode                         : Lossless
Stream size                              : 1.92 GiB (13%)
Language                                 : English
Default                                  : Yes
Forced                                   : No
Original source medium                   : Blu-ray
Text #1
ID                                       : 3
ID in the original source medium         : 4608 (0x1200)
Format                                   : PGS
Muxing mode                              : zlib
Codec ID                                 : S_HDMV/PGS
Codec ID/Info                            : Picture based subtitle format used on BDs/HD-DVDs
Duration                                 : 1 h 37 min
Bit rate                                 : 31.5 kb/s
Frame rate                               : 0.293 FPS
Count of elements                        : 1718
Stream size                              : 22.0 MiB (0%)
Language                                 : Chinese
Default                                  : Yes
Forced                                   : No
Original source medium                   : Blu-ray
Text #2
ID                                       : 4
ID in the original source medium         : 4609 (0x1201)
Format                                   : PGS
Muxing mode                              : zlib
Codec ID                                 : S_HDMV/PGS
Codec ID/Info                            : Picture based subtitle format used on BDs/HD-DVDs
Duration                                 : 1 h 37 min
Bit rate                                 : 18.3 kb/s
Frame rate                               : 0.293 FPS
Count of elements                        : 1718
Stream size                              : 12.8 MiB (0%)
Language                                 : Chinese
Default                                  : Yes
Forced                                   : No
Original source medium                   : Blu-ray
Text #3
ID                                       : 5
ID in the original source medium         : 4610 (0x1202)
Format                                   : PGS
Muxing mode                              : zlib
Codec ID                                 : S_HDMV/PGS
Codec ID/Info                            : Picture based subtitle format used on BDs/HD-DVDs
Duration                                 : 1 h 37 min
Bit rate                                 : 32.0 kb/s
Frame rate                               : 0.293 FPS
Count of elements                        : 1718
Stream size                              : 22.4 MiB (0%)
Language                                 : Chinese
Default                                  : Yes
Forced                                   : No
Original source medium                   : Blu-ray
Text #4
ID                                       : 6
ID in the original source medium         : 4611 (0x1203)
Format                                   : PGS
Muxing mode                              : zlib
Codec ID                                 : S_HDMV/PGS
Codec ID/Info                            : Picture based subtitle format used on BDs/HD-DVDs
Duration                                 : 1 h 37 min
Bit rate                                 : 18.8 kb/s
Frame rate                               : 0.293 FPS
Count of elements                        : 1718
Stream size                              : 13.1 MiB (0%)
Language                                 : Chinese
Default                                  : Yes
Forced                                   : No
Original source medium                   : Blu-ray
Menu
00:00:00.000                             : en:Chapter 01
00:11:24.016                             : en:Chapter 02
00:25:07.964                             : en:Chapter 03
00:41:18.976                             : en:Chapter 04
00:52:09.960                             : en:Chapter 05
01:06:07.922                             : en:Chapter 06
01:19:47.908                             : en:Chapter 07
01:32:50.982                             : en:Chapter 08
01:38:16.891                             : en:Chapter 09
部分资源为软字幕,移动端推荐播放器:MxPlayer,nPlayer,infuse ,其他播放器请自行尝试。
部分资源为软字幕,电脑端推荐播放器:PotPlayer,完美解码,KMPLAYER,其他播放器请自行尝试。
下载端推荐纯BT下载软件:qBittorrent,Bitcomet,uTorrent ,其他下载软件请自行尝试。不支持吸血迅雷。






~~~~~~~~~~~~~~~~~~~~~~~~~~~~~~~~~~~~~~~~~
[2014][欧美][剧情][BD-1080P]小型事故[中文字幕].Little.Accidents.2014.BluRay.REMUX.1080p.AVC.DTS-HD.MA5.1- 14.

【文件列表】:


Little.Accidents.2014.BluRay.REMUX.1080p.AVC.DTS-HD.MA5.1-DreamHD.



【下载地址列表】:


游客
文件下载链接就在这里,在您回复评论成功后才能显示。
请勿回复无意义的灌水内容。


下拉页面到最底部回复或者【点击此处快捷回复】,回复后返回此处即可查看下载链接。
如您没注册本站会员,可以点击注册本站,注册后即可回复下载。



软字幕无法在截图上展现,HDR版本/杜比视界版本截图会出现颜色异常,请使用支持的设备播放!






[img][/img]






[img][/img]

(HDR版本/杜比视界版本,截图会出现颜色异常,请使用支持的设备播放)

小贴士:【影视自媒体解说文案请移步:夏至文案解说网 www.xiazhi.vip

上一篇:[更 早][其它][惊悚][BD-4K]汉尼拔[HDR/杜比视界双版本][国英多音轨/中英字幕].Hannibal.2001.UHD.BluRay.REMUX.2160p.HEVC.DoVi.HDR.
下一篇:[2022][其它][剧情][WEB-1080P]生之欲[简繁英字幕].Living.2023.1080p.iTunes.WEB-DL.DD5.1.H264- 5.06GB
回复

使用道具 举报

您需要登录后才可以回帖 登录 | 立即注册

本版积分规则

Archiver|手机版|小众纪录片影视聚合

GMT+8, 2024-7-24 23:51 , Processed in 0.599320 second(s), 12 queries , Gzip On, Redis On.

Powered by 小众纪录片影视聚合 @2010-2023

Copyright © 2010-2024, https://www.xzjlp.com/.


免责说明:本站所有内容链接、图文介绍等均来自于互联网网友分享,本站仅支持web页面展示和文字介绍,绝不提供在线观看和存储服务,也不参与录制、上传、压片。若本站收录内容无意侵犯贵司版权,请发邮件到【a885185#163.com】联系本站,我们将在第一时间删除侵权内容。谢谢!

快速回复 返回顶部 返回列表