小众纪录片影视聚合

 找回密码
 立即注册
查看: 5|回复: 0

[蓝光电影] [2022][欧美][科幻][BD-4K]不[中文字幕].Nope.2022.UHD.BluRay.REMUX.2160p.HEVC.Atmos.TrueHD7.1- 58.47GB

[复制链接]

116万

主题

116万

帖子

116万

积分

超级版主

Rank: 8Rank: 8

积分
1167997
发表于 2024-7-9 21:40:53 | 显示全部楼层 |阅读模式


[2022][欧美][科幻][BD-4K]不[中文字幕].Nope.2022.UHD.BluRay.REMUX.2160p.HEVC.Atmos.TrueHD7.1- 58.47GB

完整标题:不[中文字幕].Nope.2022.UHD.BluRay.REMUX.2160p.HEVC.Atmos.TrueHD7.1-DreamHD 58.47GB
◎标  题 不
◎译  名 不!(台) / 虚无(港) / 不要 / 覅
◎片  名 Nope
◎年  代 2022
◎产  地 美国 / 日本 / 加拿大
◎类  别 科幻 / 悬疑 / 惊悚 / 恐怖
◎语  言 英语
◎上映日期 2022-07-22(美国)
◎IMDb评分 6.8/10 (205987人评价)
◎IMDb链接 https://www.imdb.com/title/tt10954984/
◎豆瓣评分 6.8/10 (67535人评价)
◎豆瓣链接 https://movie.douban.com/subject/35240235/
◎片  长 130分钟
◎导  演 乔丹·皮尔 Jordan Peele
◎编  剧 乔丹·皮尔 Jordan Peele
◎演  员 丹尼尔·卡卢亚 Daniel Kaluuya
       柯柯·帕尔莫 Keke Palmer
       布兰登·佩利亚 Brandon Perea
       迈克尔·维克特 Michael Wincott
       史蒂文·元 Steven Yeun
       瑞安·施密特 Wrenn Schmidt
       凯斯·大卫 Keith David
       德文·格拉耶 Devon Graye
       泰瑞·诺塔里 Terry Notary
       芭比·费雷拉 Barbie Ferreira
       唐娜·米尔斯 Donna Mills
       奥兹·珀金斯 Oz Perkins
       埃迪·杰米森 Eddie Jemison
       雅各布·金 Jacob Kim
       索菲娅·柯多 Sophia Coto
       珍妮弗·拉弗勒 Jennifer Lafleur
       安德鲁·帕特里克·拉斯顿 Andrew Patrick Ralston
       郑林肯 Lincoln Lambert
       阿莱克斯·海德-怀特 Alex Hyde-White
       阿曼达·琼斯 Amanda Jones
       里安·里斯 Rhian Rees
       埃文·沙夫兰 Evan Shafran
       马克·卡西米尔·戴妮奇斯 Mark Casimir Dyniewicz
       罗曼·格罗斯 Roman Gross
◎简  介
    本片由史蒂文·元、丹尼尔·卡卢亚和柯柯·帕尔莫主演,他们饰演位于加州内陆一座荒凉小镇的居民,目击了一场令人不安及不寒而栗的诡异发现。##### MediaInfo ######
General
Unique ID                                : 70675410451050733627516426857016457793 (0x352B96C43E98CCBF857C45AD98FBFA41)
Complete name                            : Nope.2022.UHD.BluRay.REMUX.2160p.HEVC.Atmos.TrueHD7.1-DreamHD.mkv
Duration                                 : 2 h 10 min
Overall bit rate mode                    : Variable
Overall bit rate                         : 64.1 Mb/s
Video
ID                                       : 1
ID in the original source medium         : 4113 (0x1011)
Format                                   : HEVC
Format/Info                              : High Efficiency Video Coding
Format profile                           : Main [email protected]@High
HDR format                               : SMPTE ST 2086, HDR10 compatible
Codec ID                                 : V_MPEGH/ISO/HEVC
Duration                                 : 2 h 10 min
Bit rate                                 : 60.8 Mb/s
Width                                    : 3 840 pixels
Height                                   : 2 160 pixels
Display aspect ratio                     : 16:9
Frame rate mode                          : Constant
Frame rate                               : 23.976 (24000/1001) FPS
Color space                              : YUV
Chroma subsampling                       : 4:2:0 (Type 2)
Bit depth                                : 10 bits
Bits/(Pixel*Frame)                       : 0.306
Stream size                              : 55.4 GiB (95%)
Default                                  : Yes
Forced                                   : No
Color range                              : Limited
Color primaries                          : BT.2020
Transfer characteristics                 : PQ
Matrix coefficients                      : BT.2020 non-constant
Mastering display color primaries        : Display P3
Mastering display luminance              : min: 0.0050 cd/m2, max: 1000 cd/m2
Maximum Content Light Level              : 197 cd/m2
Maximum Frame-Average Light Level        : 166 cd/m2
Original source medium                   : Blu-ray
Audio
ID                                       : 2
ID in the original source medium         : 4352 (0x1100)
Format                                   : MLP FBA 16-ch
Format/Info                              : Meridian Lossless Packing FBA with 16-channel presentation
Commercial name                          : Dolby TrueHD with Dolby Atmos
Codec ID                                 : A_TRUEHD
Duration                                 : 2 h 10 min
Bit rate mode                            : Variable
Bit rate                                 : 2 994 kb/s
Maximum bit rate                         : 4 743 kb/s
Channel(s)                               : 8 channels
Channel layout                           : L R C LFE Ls Rs Lb Rb
Sampling rate                            : 48.0 kHz
Frame rate                               : 1 200.000 FPS (40 SPF)
Compression mode                         : Lossless
Stream size                              : 2.73 GiB (5%)
Language                                 : English
Default                                  : Yes
Forced                                   : No
Original source medium                   : Blu-ray
Number of dynamic objects                : 11
Bed channel count                        : 1 channel
Bed channel configuration                : LFE
Text #1
ID                                       : 3
ID in the original source medium         : 4768 (0x12A0)
Format                                   : PGS
Muxing mode                              : zlib
Codec ID                                 : S_HDMV/PGS
Codec ID/Info                            : Picture based subtitle format used on BDs/HD-DVDs
Duration                                 : 2 h 3 min
Bit rate                                 : 42.4 kb/s
Frame rate                               : 0.510 FPS
Count of elements                        : 3768
Stream size                              : 37.4 MiB (0%)
Language                                 : English
Default                                  : Yes
Forced                                   : No
Original source medium                   : Blu-ray
Text #2
ID                                       : 4
ID in the original source medium         : 4771 (0x12A3)
Format                                   : PGS
Muxing mode                              : zlib
Codec ID                                 : S_HDMV/PGS
Codec ID/Info                            : Picture based subtitle format used on BDs/HD-DVDs
Duration                                 : 2 h 3 min
Bit rate                                 : 26.8 kb/s
Frame rate                               : 0.448 FPS
Count of elements                        : 3325
Stream size                              : 23.8 MiB (0%)
Language                                 : Chinese
Default                                  : Yes
Forced                                   : No
Original source medium                   : Blu-ray
Text #3
ID                                       : 5
ID in the original source medium         : 4772 (0x12A4)
Format                                   : PGS
Muxing mode                              : zlib
Codec ID                                 : S_HDMV/PGS
Codec ID/Info                            : Picture based subtitle format used on BDs/HD-DVDs
Duration                                 : 2 h 3 min
Bit rate                                 : 27.5 kb/s
Frame rate                               : 0.448 FPS
Count of elements                        : 3325
Stream size                              : 24.3 MiB (0%)
Language                                 : Chinese
Default                                  : Yes
Forced                                   : No
Original source medium                   : Blu-ray
Text #4
ID                                       : 6
ID in the original source medium         : 4773 (0x12A5)
Format                                   : PGS
Muxing mode                              : zlib
Codec ID                                 : S_HDMV/PGS
Codec ID/Info                            : Picture based subtitle format used on BDs/HD-DVDs
Duration                                 : 2 h 3 min
Bit rate                                 : 41.9 kb/s
Frame rate                               : 0.448 FPS
Count of elements                        : 3325
Stream size                              : 37.1 MiB (0%)
Language                                 : Chinese
Default                                  : Yes
Forced                                   : No
Original source medium                   : Blu-ray
Text #5
ID                                       : 7
ID in the original source medium         : 4774 (0x12A6)
Format                                   : PGS
Muxing mode                              : zlib
Codec ID                                 : S_HDMV/PGS
Codec ID/Info                            : Picture based subtitle format used on BDs/HD-DVDs
Duration                                 : 2 h 3 min
Bit rate                                 : 42.5 kb/s
Frame rate                               : 0.448 FPS
Count of elements                        : 3325
Stream size                              : 37.6 MiB (0%)
Language                                 : Chinese
Default                                  : Yes
Forced                                   : No
Original source medium                   : Blu-ray
Text #6
ID                                       : 8
ID in the original source medium         : 4775 (0x12A7)
Format                                   : PGS
Muxing mode                              : zlib
Codec ID                                 : S_HDMV/PGS
Codec ID/Info                            : Picture based subtitle format used on BDs/HD-DVDs
Duration                                 : 2 h 3 min
Bit rate                                 : 90.6 kb/s
Frame rate                               : 0.919 FPS
Count of elements                        : 6826
Stream size                              : 80.2 MiB (0%)
Language                                 : Chinese
Default                                  : Yes
Forced                                   : No
Original source medium                   : Blu-ray
Text #7
ID                                       : 9
ID in the original source medium         : 4776 (0x12A8)
Format                                   : PGS
Muxing mode                              : zlib
Codec ID                                 : S_HDMV/PGS
Codec ID/Info                            : Picture based subtitle format used on BDs/HD-DVDs
Duration                                 : 2 h 3 min
Bit rate                                 : 91.4 kb/s
Frame rate                               : 0.919 FPS
Count of elements                        : 6826
Stream size                              : 80.9 MiB (0%)
Language                                 : Chinese
Default                                  : Yes
Forced                                   : No
Original source medium                   : Blu-ray
Text #8
ID                                       : 10
ID in the original source medium         : 4777 (0x12A9)
Format                                   : PGS
Muxing mode                              : zlib
Codec ID                                 : S_HDMV/PGS
Codec ID/Info                            : Picture based subtitle format used on BDs/HD-DVDs
Duration                                 : 2 h 3 min
Bit rate                                 : 109 kb/s
Frame rate                               : 0.919 FPS
Count of elements                        : 6826
Stream size                              : 96.5 MiB (0%)
Language                                 : Chinese
Default                                  : Yes
Forced                                   : No
Original source medium                   : Blu-ray
Text #9
ID                                       : 11
ID in the original source medium         : 4778 (0x12AA)
Format                                   : PGS
Muxing mode                              : zlib
Codec ID                                 : S_HDMV/PGS
Codec ID/Info                            : Picture based subtitle format used on BDs/HD-DVDs
Duration                                 : 2 h 3 min
Bit rate                                 : 110 kb/s
Frame rate                               : 0.919 FPS
Count of elements                        : 6826
Stream size                              : 97.1 MiB (0%)
Language                                 : Chinese
Default                                  : Yes
Forced                                   : No
Original source medium                   : Blu-ray
Menu
00:00:00.000                             : en:Chapter 01
00:08:10.490                             : en:Chapter 02
00:14:54.393                             : en:Chapter 03
00:21:47.472                             : en:Chapter 04
00:25:31.738                             : en:Chapter 05
00:30:58.523                             : en:Chapter 06
00:40:00.022                             : en:Chapter 07
00:43:54.340                             : en:Chapter 08
00:51:44.226                             : en:Chapter 09
00:57:35.743                             : en:Chapter 10
01:04:23.901                             : en:Chapter 11
01:11:43.716                             : en:Chapter 12
01:22:42.165                             : en:Chapter 13
01:29:20.772                             : en:Chapter 14
01:35:22.133                             : en:Chapter 15
01:39:26.961                             : en:Chapter 16
01:47:48.336                             : en:Chapter 17
01:52:32.036                             : en:Chapter 18
01:57:17.572                             : en:Chapter 19
02:03:43.999                             : en:Chapter 20
部分资源为软字幕,移动端推荐播放器:MxPlayer,nPlayer,infuse ,其他播放器请自行尝试。
部分资源为软字幕,电脑端推荐播放器:PotPlayer,完美解码,KMPLAYER,其他播放器请自行尝试。
下载端推荐纯BT下载软件:qBittorrent,Bitcomet,uTorrent ,其他下载软件请自行尝试。不支持吸血迅雷。






~~~~~~~~~~~~~~~~~~~~~~~~~~~~~~~~~~~~~~~~~
[2022][欧美][科幻][BD-4K]不[中文字幕].Nope.2022.UHD.BluRay.REMUX.2160p.HEVC.Atmos.TrueHD7.1- 58.47GB

【文件列表】:


Nope.2022.UHD.BluRay.REMUX.2160p.HEVC.Atmos.TrueHD7.1-DreamHD.



【下载地址列表】:


游客
文件下载链接就在这里,在您回复评论成功后才能显示。
请勿回复无意义的灌水内容。


下拉页面到最底部回复或者【点击此处快捷回复】,回复后返回此处即可查看下载链接。
如您没注册本站会员,可以点击注册本站,注册后即可回复下载。



软字幕无法在截图上展现,HDR版本/杜比视界版本截图会出现颜色异常,请使用支持的设备播放!






[img][/img]






[img][/img]

(HDR版本/杜比视界版本,截图会出现颜色异常,请使用支持的设备播放)

小贴士:【影视自媒体解说文案请移步:夏至文案解说网 www.xiazhi.vip

上一篇:[2022][欧美][科幻][BD-1080P]不[中文字幕].Nope.2022.BluRay.REMUX.1080p.AVC.Atmos.TrueHD7.1- 27.61GB
下一篇:[2014][欧美][动作][WEB-4K]霍比特人3:五军之战[中文字幕].2014.2160p.iTunes.WEB-DL.DDP5.1.Atmos.H.265- 14.19GB
回复

使用道具 举报

您需要登录后才可以回帖 登录 | 立即注册

本版积分规则

Archiver|手机版|小众纪录片影视聚合

GMT+8, 2024-7-25 03:29 , Processed in 0.145024 second(s), 11 queries , Gzip On, Redis On.

Powered by 小众纪录片影视聚合 @2010-2023

Copyright © 2010-2024, https://www.xzjlp.com/.


免责说明:本站所有内容链接、图文介绍等均来自于互联网网友分享,本站仅支持web页面展示和文字介绍,绝不提供在线观看和存储服务,也不参与录制、上传、压片。若本站收录内容无意侵犯贵司版权,请发邮件到【a885185#163.com】联系本站,我们将在第一时间删除侵权内容。谢谢!

快速回复 返回顶部 返回列表