小众纪录片影视聚合

 找回密码
 立即注册
查看: 4|回复: 0

[蓝光电影] [2023][其它][喜剧][BD-1080P]奇美拉[中文字幕].La.Chimera.2023.1080p.BluRay.x265.10bit.DTS- 6.69GB

[复制链接]

113万

主题

113万

帖子

113万

积分

超级版主

Rank: 8Rank: 8

积分
1134816
发表于 2024-7-9 21:43:04 | 显示全部楼层 |阅读模式


[2023][其它][喜剧][BD-1080P]奇美拉[中文字幕].La.Chimera.2023.1080p.BluRay.x265.10bit.DTS- 6.69GB

完整标题:奇美拉[中文字幕].La.Chimera.2023.1080p.BluRay.x265.10bit.DTS-SONYHD 6.69GB
◎标  题 奇美拉
◎译  名 盗墓奇美拉(台)
◎片  名 La Chimera
◎年  代 2023
◎产  地 意大利 / 法国 / 瑞士
◎类  别 喜剧 / 爱情 / 奇幻 / 冒险
◎语  言 意大利语 / 英语
◎上映日期 2023-05-26(戛纳电影节) / 2024-03-29(美国)
◎IMDb评分 7.3/10 (6423人评价)
◎IMDb链接 https://www.imdb.com/title/tt14561712/
◎豆瓣评分 7.9/10 (11738人评价)
◎豆瓣链接 https://movie.douban.com/subject/35448539/
◎片  长 130分钟
◎导  演 阿莉切·罗尔瓦赫尔 Alice Rohrwacher
◎编  剧 卡梅拉·科维诺 Carmela Covino
       马可·佩特内罗 Marco Pettenello
       阿莉切·罗尔瓦赫尔 Alice Rohrwacher
◎演  员 乔什·奥康纳 Josh O'Connor
       卡罗尔·杜阿尔特 Carol Duarte
       文森佐·内莫拉托 Vincenzo Nemolato
       伊莎贝拉·罗西里尼 Isabella Rossellini
       阿尔芭·罗尔瓦赫尔 Alba Rohrwacher
       露·罗-伊莱科内 Lou Roy-Lecollinet
        Giuliano Mantovani
        Gian Piero Capretto
        Melchiorre Pala
        Ramona Fiorini
        Luca Gargiullo
       伊勒·亚拉·维安内罗 Yile Yara Vianello
        Barbara Chiesa
        Elisabetta Perotto
        Chiara Pazzaglia
        Francesca Carrain
        Valentino Santagati
        Piero Crucitti
       卢西亚诺·维尔加罗 Luciano Vergaro
       卡罗·塔尔马蒂 Carlo Tarmati
       卢卡·奇科瓦尼 Luca Chikovani
       Milutin Dapcevic Milutin Dapcevic
◎简  介
    每个人都有自己的“奇美拉”,这是他们试图实现但却无法找到的东西。对于盗墓团伙来说,奇美拉意味着从工作和轻松致富的梦想中得到救赎。对亚瑟(乔什·奥康纳 Josh O'Connor 饰)来说,奇美拉就像他失去的那个女人,贝尼亚米娜。为了找到她,亚瑟挑战无形,到处寻找,进入地 球内部——寻找神话中所说的通往来世的大门。在活人与死人之间、森林与城市之间、庆典与孤独之间的冒险旅程中,这些人物的命运交织在一起,都是为了寻找奇美拉。##### MediaInfo ######
General
Unique ID                                : 325768606041808001018006989663046136298 (0xF514C0574690B1D238A7F110329EF1EA)
Complete name                            : La.Chimera.2023.1080p.BluRay.x265.10bit.DTS-SONYHD.mkv
Duration                                 : 2 h 11 min
Overall bit rate                         : 7 295 kb/s
Video
ID                                       : 1
Format                                   : HEVC
Format/Info                              : High Efficiency Video Coding
Format profile                           : Main 10@L5@Main
Codec ID                                 : V_MPEGH/ISO/HEVC
Duration                                 : 2 h 11 min
Bit rate                                 : 5 767 kb/s
Width                                    : 1 740 pixels
Height                                   : 1 060 pixels
Display aspect ratio                     : 16:10
Frame rate mode                          : Constant
Frame rate                               : 24.000 FPS
Color space                              : YUV
Chroma subsampling                       : 4:2:0
Bit depth                                : 10 bits
Bits/(Pixel*Frame)                       : 0.130
Stream size                              : 5.29 GiB (79%)
Writing library                          : x265 3.5g2b25c9ba0+45:[Windows][GCC 10.2.0][64 bit] Yuuki 10bit+8bit+12bit
Encoding settings                        : rc=crf / crf=20.2400 / qcomp=0.60 / qpstep=4 / stats-write=0 / stats-read=0 / no-lossless / no-cu-lossless / aq-mode=3 / aq-strength=0.90 / cbqpoffs=0 / crqpoffs=0 / ipratio=1.40 / pbratio=1.30 / psy-rd=2.00 / psy-rdoq=0.00 / deblock=0:0 / ref=6 / limit-refs=1 / no-limit-modes / bframes=8 / b-adapt=2 / bframe-bias=0 / b-pyramid / b-intra / weightp / weightb / min-keyint=24 / max-keyint=240 / rc-lookahead=24 / gop-lookahead=0 / scenecut=40 / hist-scenecut=0 / radl=0 / max-cu-size=64 / min-cu-size=8 / me=3 / subme=7 / merange=48 / rdoq-level=0 / rd=4 / rdpenalty=0 / dynamic-rd=0.00 / no-rd-refine / ----- / cutree / sao / no-rect / no-amp / no-open-gop / wpp / no-pmode / no-pme / no-psnr / no-ssim / nr-intra=0 / nr-inter=0 / no-constrained-intra / no-strong-intra-smoothing / max-tu-size=32 / tu-inter-depth=1 / tu-intra-depth=1 / limit-tu=0 / qg-size=32 / qpmax=69 / qpmin=0 / ----- / cpuid=1111039 / frame-threads=4 / numa-pools=+ / log-level=2 / input-csp=1 / input-res=1740x1060 / interlace=0 / level-idc=0 / high-tier=1 / uhd-bd=0 / no-allow-non-conformance / repeat-headers / aud / no-hrd / info / hash=0 / no-temporal-layers / lookahead-slices=0 / no-splice / no-intra-refresh / no-ssim-rd / signhide / no-tskip / max-merge=3 / temporal-mvp / no-frame-dup / no-hme / no-analyze-src-pics / no-sao-non-deblock / selective-sao=4 / early-skip / rskip / no-fast-intra / no-tskip-fast / no-splitrd-skip / zone-count=0 / no-strict-cbr / no-rc-grain / no-const-vbv / sar=0 / overscan=0 / videoformat=5 / range=0 / colorprim=2 / transfer=2 / colormatrix=2 / chromaloc=0 / display-window=0 / cll=0,0 / min-luma=0 / max-luma=1023 / log2-max-poc-lsb=8 / vui-timing-info / vui-hrd-info / slices=1 / no-opt-qp-pps / no-opt-ref-list-length-pps / no-multi-pass-opt-rps / scenecut-bias=0.05 / hist-threshold=0.03 / no-opt-cu-delta-qp / no-aq-motion / no-hdr10 / no-hdr10-opt / no-dhdr10-opt / no-idr-recovery-sei / analysis-reuse-level=0 / analysis-save-reuse-level=0 / analysis-load-reuse-level=0 / scale-factor=0 / refine-intra=0 / refine-inter=0 / refine-mv=1 / refine-ctu-distortion=0 / no-limit-sao / ctu-info=0 / no-lowpass-dct / refine-analysis-type=0 / copy-pic=1 / max-ausize-factor=1.0 / no-dynamic-refine / no-single-sei / no-hevc-aq / no-svt / no-field / qp-adaptation-range=1.00 / scenecut-aware-qp=0conformance-window-offsets / right=0 / bottom=0 / decoder-max-rate=0 / no-vbv-live-multi-pass
Default                                  : Yes
Forced                                   : No
Audio
ID                                       : 2
ID in the original source medium         : 4352 (0x1100)
Format                                   : DTS
Format/Info                              : Digital Theater Systems
Codec ID                                 : A_DTS
Duration                                 : 2 h 11 min
Bit rate mode                            : Constant
Bit rate                                 : 1 509 kb/s
Channel(s)                               : 6 channels
Channel layout                           : C L R Ls Rs LFE
Sampling rate                            : 48.0 kHz
Frame rate                               : 93.750 FPS (512 SPF)
Bit depth                                : 16 bits
Compression mode                         : Lossy
Stream size                              : 1.38 GiB (21%)
Title                                    : Italian
Language                                 : Italian
Default                                  : Yes
Forced                                   : No
Original source medium                   : Blu-ray
Text #1
ID                                       : 3
ID in the original source medium         : 4609 (0x1201)
Format                                   : PGS
Muxing mode                              : zlib
Codec ID                                 : S_HDMV/PGS
Codec ID/Info                            : Picture based subtitle format used on BDs/HD-DVDs
Duration                                 : 2 h 3 min
Bit rate                                 : 19.2 kb/s
Frame rate                               : 0.321 FPS
Count of elements                        : 2372
Stream size                              : 16.9 MiB (0%)
Title                                    : chs
Language                                 : Chinese
Default                                  : Yes
Forced                                   : No
Original source medium                   : Blu-ray
Text #2
ID                                       : 4
ID in the original source medium         : 4610 (0x1202)
Format                                   : PGS
Muxing mode                              : zlib
Codec ID                                 : S_HDMV/PGS
Codec ID/Info                            : Picture based subtitle format used on BDs/HD-DVDs
Duration                                 : 2 h 3 min
Bit rate                                 : 19.3 kb/s
Frame rate                               : 0.321 FPS
Count of elements                        : 2372
Stream size                              : 17.0 MiB (0%)
Title                                    : cht
Language                                 : Chinese
Default                                  : No
Forced                                   : No
Original source medium                   : Blu-ray
Menu
00:00:00.000                             : en:Chapter 01
00:08:26.875                             : en:Chapter 02
00:20:01.541                             : en:Chapter 03
00:30:27.333                             : en:Chapter 04
00:44:34.875                             : en:Chapter 05
00:54:10.333                             : en:Chapter 06
01:04:21.000                             : en:Chapter 07
01:14:02.500                             : en:Chapter 08
01:24:03.291                             : en:Chapter 09
01:36:53.208                             : en:Chapter 10
01:48:13.583                             : en:Chapter 11
02:02:01.000                             : en:Chapter 12
部分资源为软字幕,移动端推荐播放器:MxPlayer,nPlayer,infuse ,其他播放器请自行尝试。
部分资源为软字幕,电脑端推荐播放器:PotPlayer,完美解码,KMPLAYER,其他播放器请自行尝试。
下载端推荐纯BT下载软件:qBittorrent,Bitcomet,uTorrent ,其他下载软件请自行尝试。不支持吸血迅雷。






~~~~~~~~~~~~~~~~~~~~~~~~~~~~~~~~~~~~~~~~~
[2023][其它][喜剧][BD-1080P]奇美拉[中文字幕].La.Chimera.2023.1080p.BluRay.x265.10bit.DTS- 6.69GB

【文件列表】:


La.Chimera.2023.1080p.BluRay.x265.10bit.DTS-SONYHD.



【下载地址列表】:


游客
文件下载链接就在这里,在您回复评论成功后才能显示。
请勿回复无意义的灌水内容。


下拉页面到最底部回复或者【点击此处快捷回复】,回复后返回此处即可查看下载链接。
如您没注册本站会员,可以点击注册本站,注册后即可回复下载。



软字幕无法在截图上展现,HDR版本/杜比视界版本截图会出现颜色异常,请使用支持的设备播放!






[img][/img]






[img][/img]

(HDR版本/杜比视界版本,截图会出现颜色异常,请使用支持的设备播放)

小贴士:【影视自媒体解说文案请移步:夏至文案解说网 www.xiazhi.vip

上一篇:[2023][大陆][喜剧][WEB-4K]非诚勿扰3[杜比视界版本][高码版][国语配音/中文字幕].If.You.Are.the.One.3.2023.2160p.HQ.WEB-DL.H265.DV.
下一篇:[2016][大陆][喜剧][WEB-1080P]情圣[国语配音/中文字幕].Some.Like.It.Hot.2016.1080p.CATCHPLAY.WEB-DL.AAC2.0.H.264-
回复

使用道具 举报

您需要登录后才可以回帖 登录 | 立即注册

本版积分规则

Archiver|手机版|小众纪录片影视聚合

GMT+8, 2024-7-22 07:37 , Processed in 0.070432 second(s), 12 queries , Gzip On, Redis On.

Powered by 小众纪录片影视聚合 @2010-2023

Copyright © 2010-2024, https://www.xzjlp.com/.


免责说明:本站所有内容链接、图文介绍等均来自于互联网网友分享,本站仅支持web页面展示和文字介绍,绝不提供在线观看和存储服务,也不参与录制、上传、压片。若本站收录内容无意侵犯贵司版权,请发邮件到【a885185#163.com】联系本站,我们将在第一时间删除侵权内容。谢谢!

快速回复 返回顶部 返回列表