小众纪录片影视聚合

 找回密码
 立即注册
查看: 13|回复: 0

[蓝光电影] [更 早][欧美][剧情][BD-1080P]太空异种[简繁英字幕].The.Astronauts.Wife.1999.1080p.BluRay.Remux.AVC.DTS-HD.MA.5.1-

[复制链接]

116万

主题

116万

帖子

116万

积分

超级版主

Rank: 8Rank: 8

积分
1167997
发表于 2024-7-9 21:44:10 | 显示全部楼层 |阅读模式


[更 早][欧美][剧情][BD-1080P]太空异种[简繁英字幕].The.Astronauts.Wife.1999.1080p.BluRay.Remux.AVC.DTS-HD.MA.5.1-

完整标题:太空异种[简繁英字幕].The.Astronauts.Wife.1999.1080p.BluRay.Remux.AVC.DTS-HD.MA.5.1-SONYHD 17.51GB
◎标  题 太空异种
◎译  名 宇航员的妻子 / 天外魔種 / 宇航员之妻
◎片  名 The Astronaut's Wife
◎年  代 1999
◎产  地 美国
◎类  别 剧情 / 科幻 / 惊悚
◎语  言 英语
◎上映日期 1999-08-27
◎IMDb评分 5.4/10 (56282人评价)
◎IMDb链接 https://www.imdb.com/title/tt0138304/
◎豆瓣评分 6.3/10 (7114人评价)
◎豆瓣链接 https://movie.douban.com/subject/1300250/
◎片  长 109分钟
◎导  演 兰德·拉维奇 Rand Ravich
◎编  剧 兰德·拉维奇 Rand Ravich
◎演  员 约翰尼·德普 Johnny Depp
       查理兹·塞隆 Charlize Theron
       乔·莫顿 Joe Morton
       克里·杜瓦尔 Clea DuVall
       唐纳·墨菲 Donna Murphy
       汤姆·诺南 Tom Noonan
       加里·格鲁布斯 Gary Grubbs
       科尔·斯普罗斯 Cole Sprouse
       迪伦·斯普罗斯 Dylan Sprouse
       萨曼莎·艾加 Samantha Eggar
       布莱尔·布朗 Blair Brown
       康拉德·巴赫曼 Conrad Bachmann
       朱利安·巴恩斯 Julian Barnes
       莎拉·丹普夫 Sarah Dampf
       Dawn Landon Dawn Landon
       查尔斯·兰利 Charles Lanyer
       爱德华·科尔 Edward Kerr
       Michael Luceri Michael Luceri
       汤姆·奥布莱恩 Tom O'Brien
       朗迪·里德 Rondi Reed
       Elston Ridgle Elston Ridgle
       尼克·卡萨维蒂 Nick Cassavetes
◎简  介
    居住在休士顿的阿玛考斯特夫妇生活安逸幸福,妻子吉莉安(查理兹·塞隆 Charlize Theron 饰)是一名小学教员,丈夫史宾塞(约翰尼·德普 Jonny Depp 饰)则是供职于太空总署的宇航员。为了维修故障卫星,史宾塞和老搭档艾力克斯·史瑞克(Nick Cassavetes 饰)进入地球轨道。然而原本简单的任务却突发事故,故障卫星爆炸,导致两人与地球失去联系长达两分钟之久。所幸他们并无大碍,最终还是安全回到地球。                                    在此之后,史宾塞和艾力克斯对那神秘的两分钟绝口不提,吉莉安也从他们的沉默中预感到什么。就在史宾塞决定辞职和妻子搬到纽约前不久,艾力克斯与妻子娜塔莉(Donna Murphy 饰)相继暴亡。吉莉安对此深感不安,她隐隐感到某些不祥的事件将发生在她和丈夫的身上……##### MediaInfo ######
General
Unique ID                                : 228023799691860866770079561490303967024 (0xAB8BC95096F65ADE2D6C016C67665F30)
Complete name                            : The.Astronauts.Wife.1999.1080p.BluRay.Remux.AVC.DTS-HD.MA.5.1-SONYHD.mkv
Duration                                 : 1 h 49 min
Overall bit rate mode                    : Variable
Overall bit rate                         : 23.0 Mb/s
Video
ID                                       : 1
ID in the original source medium         : 4113 (0x1011)
Format                                   : AVC
Format/Info                              : Advanced Video Codec
Format profile                           : High@L4
Format settings                          : CABAC / 2 Ref Frames
Format settings, CABAC                   : Yes
Format settings, Reference frames        : 2 frames
Format settings, GOP                     : M=1, N=10
Codec ID                                 : V_MPEG4/ISO/AVC
Duration                                 : 1 h 49 min
Bit rate mode                            : Variable
Bit rate                                 : 18.9 Mb/s
Width                                    : 1 920 pixels
Height                                   : 1 080 pixels
Display aspect ratio                     : 16:9
Frame rate mode                          : Constant
Frame rate                               : 23.976 (24000/1001) FPS
Color space                              : YUV
Chroma subsampling                       : 4:2:0
Bit depth                                : 8 bits
Scan type                                : Progressive
Bits/(Pixel*Frame)                       : 0.380
Stream size                              : 14.4 GiB (82%)
Default                                  : Yes
Forced                                   : No
Original source medium                   : Blu-ray
Audio
ID                                       : 2
ID in the original source medium         : 4352 (0x1100)
Format                                   : DTS XLL
Format/Info                              : Digital Theater Systems
Commercial name                          : DTS-HD Master Audio
Codec ID                                 : A_DTS
Duration                                 : 1 h 49 min
Bit rate mode                            : Variable
Bit rate                                 : 4 060 kb/s
Channel(s)                               : 6 channels
Channel layout                           : C L R Ls Rs LFE
Sampling rate                            : 48.0 kHz
Frame rate                               : 93.750 FPS (512 SPF)
Bit depth                                : 24 bits
Compression mode                         : Lossless
Stream size                              : 3.10 GiB (18%)
Title                                    : English
Language                                 : English
Default                                  : Yes
Forced                                   : No
Original source medium                   : Blu-ray
Text #1
ID                                       : 3
ID in the original source medium         : 4616 (0x1208)
Format                                   : PGS
Muxing mode                              : zlib
Codec ID                                 : S_HDMV/PGS
Codec ID/Info                            : Picture based subtitle format used on BDs/HD-DVDs
Duration                                 : 1 h 42 min
Bit rate                                 : 16.9 kb/s
Frame rate                               : 0.283 FPS
Count of elements                        : 1736
Stream size                              : 12.4 MiB (0%)
Title                                    : chs
Language                                 : Chinese
Default                                  : Yes
Forced                                   : No
Original source medium                   : Blu-ray
Text #2
ID                                       : 4
ID in the original source medium         : 4617 (0x1209)
Format                                   : PGS
Muxing mode                              : zlib
Codec ID                                 : S_HDMV/PGS
Codec ID/Info                            : Picture based subtitle format used on BDs/HD-DVDs
Duration                                 : 1 h 42 min
Bit rate                                 : 17.1 kb/s
Frame rate                               : 0.283 FPS
Count of elements                        : 1736
Stream size                              : 12.5 MiB (0%)
Title                                    : cht
Language                                 : Chinese
Default                                  : No
Forced                                   : No
Original source medium                   : Blu-ray
Text #3
ID                                       : 5
ID in the original source medium         : 4609 (0x1201)
Format                                   : PGS
Muxing mode                              : zlib
Codec ID                                 : S_HDMV/PGS
Codec ID/Info                            : Picture based subtitle format used on BDs/HD-DVDs
Duration                                 : 1 h 48 min
Bit rate                                 : 28.8 kb/s
Frame rate                               : 0.394 FPS
Count of elements                        : 2568
Stream size                              : 22.3 MiB (0%)
Title                                    : eng
Language                                 : English
Default                                  : No
Forced                                   : No
Original source medium                   : Blu-ray
Menu
00:00:00.000                             : en:Chapter 01
00:04:23.513                             : en:Chapter 02
00:08:36.307                             : en:Chapter 03
00:12:30.750                             : en:Chapter 04
00:16:50.009                             : en:Chapter 05
00:21:50.434                             : en:Chapter 06
00:25:10.509                             : en:Chapter 07
00:32:56.599                             : en:Chapter 08
00:35:46.644                             : en:Chapter 09
00:38:42.194                             : en:Chapter 10
00:42:10.528                             : en:Chapter 11
00:50:05.585                             : en:Chapter 12
00:59:01.412                             : en:Chapter 13
01:02:08.433                             : en:Chapter 14
01:17:23.847                             : en:Chapter 15
01:22:10.926                             : en:Chapter 16
01:28:05.530                             : en:Chapter 17
01:34:47.682                             : en:Chapter 18
01:41:06.477                             : en:Chapter 19
部分资源为软字幕,移动端推荐播放器:MxPlayer,nPlayer,infuse ,其他播放器请自行尝试。
部分资源为软字幕,电脑端推荐播放器:PotPlayer,完美解码,KMPLAYER,其他播放器请自行尝试。
下载端推荐纯BT下载软件:qBittorrent,Bitcomet,uTorrent ,其他下载软件请自行尝试。不支持吸血迅雷。






~~~~~~~~~~~~~~~~~~~~~~~~~~~~~~~~~~~~~~~~~
[更 早][欧美][剧情][BD-1080P]太空异种[简繁英字幕].The.Astronauts.Wife.1999.1080p.BluRay.Remux.AVC.DTS-HD.MA.5.1-

【文件列表】:


The.Astronauts.Wife.1999.1080p.BluRay.Remux.AVC.DTS-HD.MA.5.1-SONYHD.



【下载地址列表】:


游客
文件下载链接就在这里,在您回复评论成功后才能显示。
请勿回复无意义的灌水内容。


下拉页面到最底部回复或者【点击此处快捷回复】,回复后返回此处即可查看下载链接。
如您没注册本站会员,可以点击注册本站,注册后即可回复下载。



软字幕无法在截图上展现,HDR版本/杜比视界版本截图会出现颜色异常,请使用支持的设备播放!






[img][/img]






[img][/img]

(HDR版本/杜比视界版本,截图会出现颜色异常,请使用支持的设备播放)

小贴士:【影视自媒体解说文案请移步:夏至文案解说网 www.xiazhi.vip

上一篇:[2023][欧美][动作][BD-1080P]我不好惹2:贝琪之怒[中文字幕].The.Wrath.Of.Becky.2023.BluRay.1080p.HDR.AAC2.0.x264- 2.
下一篇:[更 早][欧美][剧情][BD-1080P]太空异种[简繁英字幕].The.Astronauts.Wife.1999.1080p.BluRay.x264.DTS- 8.15GB
回复

使用道具 举报

您需要登录后才可以回帖 登录 | 立即注册

本版积分规则

Archiver|手机版|小众纪录片影视聚合

GMT+8, 2024-7-25 02:25 , Processed in 2.343295 second(s), 71 queries , Gzip On, Redis On.

Powered by 小众纪录片影视聚合 @2010-2023

Copyright © 2010-2024, https://www.xzjlp.com/.


免责说明:本站所有内容链接、图文介绍等均来自于互联网网友分享,本站仅支持web页面展示和文字介绍,绝不提供在线观看和存储服务,也不参与录制、上传、压片。若本站收录内容无意侵犯贵司版权,请发邮件到【a885185#163.com】联系本站,我们将在第一时间删除侵权内容。谢谢!

快速回复 返回顶部 返回列表