小众纪录片影视聚合

 找回密码
 立即注册
查看: 14|回复: 0

[蓝光电影] [2014][其它][其它][WEB-1080P]中国长城:尘封的历史[中文字幕].The.Great.Wall.Of.China.The.Hidden.Story.2014.1080p.WEB-DL.H264

[复制链接]

116万

主题

116万

帖子

116万

积分

超级版主

Rank: 8Rank: 8

积分
1167997
发表于 2024-7-9 21:45:30 | 显示全部楼层 |阅读模式


[2014][其它][其它][WEB-1080P]中国长城:尘封的历史[中文字幕].The.Great.Wall.Of.China.The.Hidden.Story.2014.1080p.WEB-DL.H264

完整标题:中国长城:尘封的历史[中文字幕].The.Great.Wall.Of.China.The.Hidden.Story.2014.1080p.WEB-DL.H264.AAC-SONYHD 1.19GB
◎标  题 中国长城:尘封的历史
◎片  名 The Great Wall Of China: The Hidden Story
◎年  代 2014
◎产  地 英国
◎类  别 纪录片
◎语  言 英语
◎上映日期 2014-11-30
◎IMDb链接 https://www.imdb.com/title//
◎豆瓣链接 https://movie.douban.com/subject/26274177/
◎片  长 60 mins
◎简  介
    The Hidden Story - Secret History: New evidence rewrites the Great Wall of China's history, decodes its complex signals system and reveals the surprise ingredient that's kept it standing.##### MediaInfo ######
General
Complete name                            : The.Great.Wall.Of.China.The.Hidden.Story.2014.1080p.WEB-DL.H264.AAC-SONYHD.mp4
Duration                                 : 46 min 51 s
Overall bit rate                         : 3 640 kb/s
Video
ID                                       : 1
Format                                   : AVC
Format/Info                              : Advanced Video Codec
Format profile                           : High@L4
Format settings                          : CABAC / 4 Ref Frames
Format settings, CABAC                   : Yes
Format settings, Reference frames        : 4 frames
Codec ID                                 : avc1
Codec ID/Info                            : Advanced Video Coding
Duration                                 : 46 min 51 s
Bit rate                                 : 3 316 kb/s
Width                                    : 1 920 pixels
Height                                   : 1 080 pixels
Display aspect ratio                     : 16:9
Frame rate mode                          : Constant
Frame rate                               : 25.000 FPS
Color space                              : YUV
Chroma subsampling                       : 4:2:0
Bit depth                                : 8 bits
Scan type                                : Progressive
Bits/(Pixel*Frame)                       : 0.064
Stream size                              : 1.09 GiB (91%)
Writing library                          : BiliBili H264 Encoder v1.0
Color range                              : Limited
Color primaries                          : BT.709
Transfer characteristics                 : BT.709
Matrix coefficients                      : BT.709
Codec configuration box                  : avcC
Audio
ID                                       : 2
Format                                   : AAC LC
Format/Info                              : Advanced Audio Codec Low Complexity
Codec ID                                 : mp4a-40-2
Duration                                 : 46 min 51 s
Bit rate mode                            : Constant
Bit rate                                 : 317 kb/s
Channel(s)                               : 2 channels
Channel layout                           : L R
Sampling rate                            : 48.0 kHz
Frame rate                               : 46.875 FPS (1024 SPF)
Compression mode                         : Lossy
Stream size                              : 106 MiB (9%)
Default                                  : Yes
Alternate group                          : 1
部分资源为软字幕,移动端推荐播放器:MxPlayer,nPlayer,infuse ,其他播放器请自行尝试。
部分资源为软字幕,电脑端推荐播放器:PotPlayer,完美解码,KMPLAYER,其他播放器请自行尝试。
下载端推荐纯BT下载软件:qBittorrent,Bitcomet,uTorrent ,其他下载软件请自行尝试。不支持吸血迅雷。






~~~~~~~~~~~~~~~~~~~~~~~~~~~~~~~~~~~~~~~~~
[2014][其它][其它][WEB-1080P]中国长城:尘封的历史[中文字幕].The.Great.Wall.Of.China.The.Hidden.Story.2014.1080p.WEB-DL.H264

【文件列表】:


The.Great.Wall.Of.China.The.Hidden.Story.2014.1080p.WEB-DL.H264.AAC-SONYHD.



【下载地址列表】:


游客
文件下载链接就在这里,在您回复评论成功后才能显示。
请勿回复无意义的灌水内容。


下拉页面到最底部回复或者【点击此处快捷回复】,回复后返回此处即可查看下载链接。
如您没注册本站会员,可以点击注册本站,注册后即可回复下载。



软字幕无法在截图上展现,HDR版本/杜比视界版本截图会出现颜色异常,请使用支持的设备播放!






[img][/img]






[img][/img]

(HDR版本/杜比视界版本,截图会出现颜色异常,请使用支持的设备播放)

小贴士:【影视自媒体解说文案请移步:夏至文案解说网 www.xiazhi.vip

上一篇:[2024][大陆][剧情][WEB-4K]末路狂花钱[60帧率版本][高码版][国语配音/中文字幕].The.Last.Frenzy.2024.2160p.HQ.WEB-DL.H265.60fps.DT
下一篇:[2023][欧美][其它][WEB-1080P]挥斧头的搭车人:从英雄到杀人犯[简繁英字幕].2023.1080p.NF.WEB-DL.x264.DDP5.1.Atmos- 1.36GB
回复

使用道具 举报

您需要登录后才可以回帖 登录 | 立即注册

本版积分规则

Archiver|手机版|小众纪录片影视聚合

GMT+8, 2024-7-25 00:21 , Processed in 0.170420 second(s), 12 queries , Gzip On, Redis On.

Powered by 小众纪录片影视聚合 @2010-2023

Copyright © 2010-2024, https://www.xzjlp.com/.


免责说明:本站所有内容链接、图文介绍等均来自于互联网网友分享,本站仅支持web页面展示和文字介绍,绝不提供在线观看和存储服务,也不参与录制、上传、压片。若本站收录内容无意侵犯贵司版权,请发邮件到【a885185#163.com】联系本站,我们将在第一时间删除侵权内容。谢谢!

快速回复 返回顶部 返回列表