小众纪录片影视聚合

 找回密码
 立即注册
查看: 13|回复: 0

[蓝光电影] [2014][欧美][其它][WEB-1080P]白宫隐秘[中文字幕].The.hidden.White.House.2014.1080p.WEB-DL.H264.AAC- 1.13GB

[复制链接]

116万

主题

116万

帖子

116万

积分

超级版主

Rank: 8Rank: 8

积分
1167997
发表于 2024-7-9 21:45:37 | 显示全部楼层 |阅读模式


[2014][欧美][其它][WEB-1080P]白宫隐秘[中文字幕].The.hidden.White.House.2014.1080p.WEB-DL.H264.AAC- 1.13GB

完整标题:白宫隐秘[中文字幕].The.hidden.White.House.2014.1080p.WEB-DL.H264.AAC-SONYHD 1.13GB
◎标  题 白宫隐秘
◎片  名 The hidden White House
◎年  代 2014
◎产  地 美国
◎类  别 纪录片
◎语  言 英语
◎IMDb链接 https://www.imdb.com/title//
◎豆瓣链接 https://movie.douban.com/subject/35881180/
◎片  长 40分钟
◎简  介
    纪录片《白宫隐秘》向观众揭开了许多不为公众所知的、有关白宫的隐秘之事。从白宫的安全保护,内部格局,到相关历史。多位在白宫工作过的人士亲自述说了自己在白宫的工作经历和体会,其中有著名的前白宫发言人阿里·弗莱舍、前白宫医生康妮·马里亚诺、前白宫录像师阿伦·乔杜里等,涉及了白宫的新闻工作、医护工作及厨房工作;还有白宫安全专家、《第一家庭详情》之作者罗纳德·凯斯勒的诠释和述说,整部纪录片会使你对不太了解的白宫有了一个比较明确、透彻和立体的概念。##### MediaInfo ######
General
Complete name                            : The.hidden.White.House.2014.1080p.WEB-DL.H264.AAC-SONYHD.mp4
Duration                                 : 40 min 20 s
Overall bit rate                         : 3 991 kb/s
Video
ID                                       : 1
Format                                   : AVC
Format/Info                              : Advanced Video Codec
Format profile                           : High@L4
Format settings                          : CABAC / 4 Ref Frames
Format settings, CABAC                   : Yes
Format settings, Reference frames        : 4 frames
Codec ID                                 : avc1
Codec ID/Info                            : Advanced Video Coding
Duration                                 : 40 min 20 s
Bit rate                                 : 3 793 kb/s
Width                                    : 1 920 pixels
Height                                   : 1 080 pixels
Display aspect ratio                     : 16:9
Frame rate mode                          : Constant
Frame rate                               : 25.000 FPS
Color space                              : YUV
Chroma subsampling                       : 4:2:0
Bit depth                                : 8 bits
Scan type                                : Progressive
Bits/(Pixel*Frame)                       : 0.073
Stream size                              : 1.07 GiB (95%)
Writing library                          : BiliBili H264 Encoder v1.0
Color range                              : Limited
Color primaries                          : BT.709
Transfer characteristics                 : BT.709
Matrix coefficients                      : BT.709
Codec configuration box                  : avcC
Audio
ID                                       : 2
Format                                   : AAC LC
Format/Info                              : Advanced Audio Codec Low Complexity
Codec ID                                 : mp4a-40-2
Duration                                 : 40 min 20 s
Bit rate mode                            : Constant
Bit rate                                 : 192 kb/s
Channel(s)                               : 2 channels
Channel layout                           : L R
Sampling rate                            : 48.0 kHz
Frame rate                               : 46.875 FPS (1024 SPF)
Compression mode                         : Lossy
Stream size                              : 55.4 MiB (5%)
Default                                  : Yes
Alternate group                          : 1
部分资源为软字幕,移动端推荐播放器:MxPlayer,nPlayer,infuse ,其他播放器请自行尝试。
部分资源为软字幕,电脑端推荐播放器:PotPlayer,完美解码,KMPLAYER,其他播放器请自行尝试。
下载端推荐纯BT下载软件:qBittorrent,Bitcomet,uTorrent ,其他下载软件请自行尝试。不支持吸血迅雷。






~~~~~~~~~~~~~~~~~~~~~~~~~~~~~~~~~~~~~~~~~
[2014][欧美][其它][WEB-1080P]白宫隐秘[中文字幕].The.hidden.White.House.2014.1080p.WEB-DL.H264.AAC- 1.13GB

【文件列表】:


The.hidden.White.House.2014.1080p.WEB-DL.H264.AAC-SONYHD.



【下载地址列表】:


游客
文件下载链接就在这里,在您回复评论成功后才能显示。
请勿回复无意义的灌水内容。


下拉页面到最底部回复或者【点击此处快捷回复】,回复后返回此处即可查看下载链接。
如您没注册本站会员,可以点击注册本站,注册后即可回复下载。



软字幕无法在截图上展现,HDR版本/杜比视界版本截图会出现颜色异常,请使用支持的设备播放!






[img][/img]






[img][/img]

(HDR版本/杜比视界版本,截图会出现颜色异常,请使用支持的设备播放)

小贴士:【影视自媒体解说文案请移步:夏至文案解说网 www.xiazhi.vip

上一篇:[2023][欧美][其它][WEB-1080P]挥斧头的搭车人:从英雄到杀人犯[简繁英字幕].2023.1080p.NF.WEB-DL.x264.DDP5.1.Atmos- 1.36GB
下一篇:[2022][其它][其它][WEB-1080P]维修站的历史:两秒发车[中文字幕].The.History.of.the.Pit.Stop.2016.1080p.WEB-DL.H264.AAC-
回复

使用道具 举报

您需要登录后才可以回帖 登录 | 立即注册

本版积分规则

Archiver|手机版|小众纪录片影视聚合

GMT+8, 2024-7-25 00:13 , Processed in 0.285105 second(s), 12 queries , Gzip On, Redis On.

Powered by 小众纪录片影视聚合 @2010-2023

Copyright © 2010-2024, https://www.xzjlp.com/.


免责说明:本站所有内容链接、图文介绍等均来自于互联网网友分享,本站仅支持web页面展示和文字介绍,绝不提供在线观看和存储服务,也不参与录制、上传、压片。若本站收录内容无意侵犯贵司版权,请发邮件到【a885185#163.com】联系本站,我们将在第一时间删除侵权内容。谢谢!

快速回复 返回顶部 返回列表