小众纪录片影视聚合

 找回密码
 立即注册
查看: 6|回复: 0

[蓝光电影] [2012][其它][其它][WEB-4K]最后的海洋[中文字幕].The.Last.Ascent.2020.2160p.WEB-DL.H264.AAC- 4.99GB

[复制链接]

116万

主题

116万

帖子

116万

积分

超级版主

Rank: 8Rank: 8

积分
1167997
发表于 2024-7-9 21:45:44 | 显示全部楼层 |阅读模式


[2012][其它][其它][WEB-4K]最后的海洋[中文字幕].The.Last.Ascent.2020.2160p.WEB-DL.H264.AAC- 4.99GB

完整标题:最后的海洋[中文字幕].The.Last.Ascent.2020.2160p.WEB-DL.H264.AAC-SONYHD 4.99GB
◎标  题 最后的海洋
◎译  名 最后的蓝海(台)
◎片  名 The Last Ocean
◎年  代 2012
◎产  地 新西兰
◎类  别 纪录片
◎语  言 英语
◎上映日期 2012-08-01
◎IMDb评分 7.4/10 (123人评价)
◎IMDb链接 https://www.imdb.com/title/tt2298780/
◎豆瓣链接 https://movie.douban.com/subject/11577057/
◎片  长 88分钟
◎导  演 Peter Young Peter Young
◎简  介
    The Last Ocean The Ross Sea, Antarctica is the most pristine stretch of ocean on Earth. A vast, frozen landscape that teems with life - whales, seals and penguins carving out a place on the very edge of existence. Californian ecologist David Ainley has been traveling to the Ross Sea to study this unique ecosystem for more than thirty years. He has written scientific papers describing it as a 'living laboratory'. Largely untouched by humans, it is one of the last places where the delicate balance of nature prevails. But an international fishing fleet has recently found its way to the Ross Sea. It is targeting Antarctic toothfish, sold as Chilean Seabass in up-market restaurants around the world. The catch is so lucrative it is known as white gold. Ainley knows that unless fishing is stopped the natural balance of the Ross Sea will be lost forever. He rallies his fellow scientists and meets up with a Colorado nature photographer and New Zealand filmmaker who also share a deep passion for this pristine corner of the world. All want to stop fishing and protect this last pristine ecosystem. Together they form 'the Last Ocean' and begin a campaign taking on the commercial fishers and governments in a race to protect Earth's last untouched ocean from our insatiable appetite for fish.##### MediaInfo ######
General
Complete name                            : The.Last.Ascent.2020.2160p.WEB-DL.H264.AAC-SONYHD.mp4
Duration                                 : 45 min 0 s
Overall bit rate                         : 15.9 Mb/s
Video
ID                                       : 1
Format                                   : AVC
Format/Info                              : Advanced Video Codec
Format profile                           : [email protected]
Format settings                          : CABAC / 5 Ref Frames
Format settings, CABAC                   : Yes
Format settings, Reference frames        : 5 frames
Codec ID                                 : avc1
Codec ID/Info                            : Advanced Video Coding
Duration                                 : 45 min 0 s
Bit rate                                 : 15.5 Mb/s
Width                                    : 3 840 pixels
Height                                   : 2 160 pixels
Display aspect ratio                     : 16:9
Frame rate mode                          : Constant
Frame rate                               : 25.000 FPS
Color space                              : YUV
Chroma subsampling                       : 4:2:0
Bit depth                                : 8 bits
Scan type                                : Progressive
Bits/(Pixel*Frame)                       : 0.075
Stream size                              : 4.89 GiB (98%)
Color range                              : Limited
Color primaries                          : BT.709
Transfer characteristics                 : BT.709
Matrix coefficients                      : BT.709
Codec configuration box                  : avcC
Audio
ID                                       : 2
Format                                   : AAC LC
Format/Info                              : Advanced Audio Codec Low Complexity
Codec ID                                 : mp4a-40-2
Duration                                 : 45 min 0 s
Bit rate mode                            : Constant
Bit rate                                 : 320 kb/s
Channel(s)                               : 2 channels
Channel layout                           : L R
Sampling rate                            : 48.0 kHz
Frame rate                               : 46.875 FPS (1024 SPF)
Compression mode                         : Lossy
Stream size                              : 103 MiB (2%)
Default                                  : Yes
Alternate group                          : 1
部分资源为软字幕,移动端推荐播放器:MxPlayer,nPlayer,infuse ,其他播放器请自行尝试。
部分资源为软字幕,电脑端推荐播放器:PotPlayer,完美解码,KMPLAYER,其他播放器请自行尝试。
下载端推荐纯BT下载软件:qBittorrent,Bitcomet,uTorrent ,其他下载软件请自行尝试。不支持吸血迅雷。






~~~~~~~~~~~~~~~~~~~~~~~~~~~~~~~~~~~~~~~~~
[2012][其它][其它][WEB-4K]最后的海洋[中文字幕].The.Last.Ascent.2020.2160p.WEB-DL.H264.AAC- 4.99GB

【文件列表】:


The.Last.Ascent.2020.2160p.WEB-DL.H264.AAC-SONYHD.



【下载地址列表】:


游客
文件下载链接就在这里,在您回复评论成功后才能显示。
请勿回复无意义的灌水内容。


下拉页面到最底部回复或者【点击此处快捷回复】,回复后返回此处即可查看下载链接。
如您没注册本站会员,可以点击注册本站,注册后即可回复下载。



软字幕无法在截图上展现,HDR版本/杜比视界版本截图会出现颜色异常,请使用支持的设备播放!






[img][/img]






[img][/img]

(HDR版本/杜比视界版本,截图会出现颜色异常,请使用支持的设备播放)

小贴士:【影视自媒体解说文案请移步:夏至文案解说网 www.xiazhi.vip

上一篇:[2022][其它][其它][WEB-1080P]维修站的历史:两秒发车[中文字幕].The.History.of.the.Pit.Stop.2016.1080p.WEB-DL.H264.AAC-
下一篇:[2015][其它][其它][WEB-1080P]最后的公爵[中文字幕].The.Last.Dukes.2015.1080p.WEB-DL.H264.AAC- 0.89GB
回复

使用道具 举报

您需要登录后才可以回帖 登录 | 立即注册

本版积分规则

Archiver|手机版|小众纪录片影视聚合

GMT+8, 2024-7-24 23:39 , Processed in 0.090795 second(s), 12 queries , Gzip On, Redis On.

Powered by 小众纪录片影视聚合 @2010-2023

Copyright © 2010-2024, https://www.xzjlp.com/.


免责说明:本站所有内容链接、图文介绍等均来自于互联网网友分享,本站仅支持web页面展示和文字介绍,绝不提供在线观看和存储服务,也不参与录制、上传、压片。若本站收录内容无意侵犯贵司版权,请发邮件到【a885185#163.com】联系本站,我们将在第一时间删除侵权内容。谢谢!

快速回复 返回顶部 返回列表