小众纪录片影视聚合

 找回密码
 立即注册
查看: 8|回复: 0

[蓝光电影] [2013][其它][惊悚][BD-1080P]生死迷局[中文字幕].Mobius.2013.1080p.BluRay.Remux.AVC.DTS-HD.MA.5.1- 23.20GB

[复制链接]

113万

主题

113万

帖子

113万

积分

超级版主

Rank: 8Rank: 8

积分
1134456
发表于 2024-7-9 21:48:41 | 显示全部楼层 |阅读模式


[2013][其它][惊悚][BD-1080P]生死迷局[中文字幕].Mobius.2013.1080p.BluRay.Remux.AVC.DTS-HD.MA.5.1- 23.20GB

完整标题:生死迷局[中文字幕].Mobius.2013.1080p.BluRay.Remux.AVC.DTS-HD.MA.5.1-SONYHD 23.20GB
◎标  题 生死迷局
◎译  名 黑金谍战(港) / 莫比乌斯 / 麦比乌斯 / Mobius
◎片  名 Möbius
◎年  代 2013
◎产  地 法国 / 比利时 / 卢森堡
◎类  别 惊悚
◎语  言 法语 / 英语 / 俄语
◎上映日期 2013-02-27(法国)
◎IMDb评分 6.1/10 (5645人评价)
◎IMDb链接 https://www.imdb.com/title/tt2106550/
◎豆瓣评分 5.0/10 (526人评价)
◎豆瓣链接 https://movie.douban.com/subject/6985065/
◎片  长 103分钟
◎导  演 埃里克·罗尚 Éric Rochant
◎编  剧 埃里克·罗尚 Éric Rochant
◎演  员 让·杜雅尔丹 Jean Dujardin
       塞西尔·德·弗朗斯 Cécile de France
       蒂姆·罗斯 Tim Roth
       艾米莉·德奎恩 Émilie Dequenne
       约翰·林奇 John Lynch
       马克西姆·维托尔甘 Maksim Vitorgan
       布拉德·利兰 Brad Leland
       Anouk Wagener Anouk Wagener
◎简  介
    诡异的金融迷局,令俄罗斯联邦安全局(FSB)盯上了逡巡在摩纳哥的俄罗斯商人伊万·罗斯托夫斯基(蒂姆·罗斯 Tim Roth 饰)。在此之后,FSB探员莫瑞斯(让·杜雅尔丹 Jean Dujardin 饰)及其团队来到此地,他授意成员与在投资、贸易等领域见长的美国女人爱丽丝·雷德蒙德(西西·迪·法兰丝 Cécile De France 饰)取得联系,希望借助爱丽丝之手进入罗斯托夫斯基的圈子,以取得他洗钱等金融罪行的证据。觥筹交错,灯影缭乱,莫瑞斯远距离注视着爱丽丝和俄国人的交谈,心中却慢慢升起别样情感。                                    与此同时,莫瑞斯以俄国投资人的身份接近爱丽丝,二人相谈甚欢,相见恨晚。任务和情感的界限模糊,凶相则慢慢浮现……##### MediaInfo ######
General
Unique ID                                : 331501559579375885582070037489203163428 (0xF964E0C5F39024F26F0F7CCE2C623124)
Complete name                            : Mobius.2013.1080p.BluRay.Remux.AVC.DTS-HD.MA.5.1-SONYHD.mkv
Duration                                 : 1 h 48 min
Overall bit rate mode                    : Variable
Overall bit rate                         : 30.7 Mb/s
Video
ID                                       : 1
ID in the original source medium         : 4113 (0x1011)
Format                                   : AVC
Format/Info                              : Advanced Video Codec
Format profile                           : [email protected]
Format settings                          : CABAC / 4 Ref Frames
Format settings, CABAC                   : Yes
Format settings, Reference frames        : 4 frames
Format settings, GOP                     : M=3, N=24
Codec ID                                 : V_MPEG4/ISO/AVC
Duration                                 : 1 h 48 min
Bit rate mode                            : Variable
Bit rate                                 : 27.3 Mb/s
Maximum bit rate                         : 35.0 Mb/s
Width                                    : 1 920 pixels
Height                                   : 1 080 pixels
Display aspect ratio                     : 16:9
Frame rate mode                          : Constant
Frame rate                               : 24.000 FPS
Standard                                 : NTSC
Color space                              : YUV
Chroma subsampling                       : 4:2:0
Bit depth                                : 8 bits
Scan type                                : Progressive
Bits/(Pixel*Frame)                       : 0.549
Stream size                              : 20.7 GiB (89%)
Title                                    : Mobius.2013.1080p.BluRay.AVC.DTS-HD.MA.5.1-DIY@Audies
Language                                 : French
Default                                  : Yes
Forced                                   : No
Color range                              : Limited
Color primaries                          : BT.709
Transfer characteristics                 : BT.709
Matrix coefficients                      : BT.709
Original source medium                   : Blu-ray
Audio
ID                                       : 2
ID in the original source medium         : 4352 (0x1100)
Format                                   : DTS XLL
Format/Info                              : Digital Theater Systems
Commercial name                          : DTS-HD Master Audio
Codec ID                                 : A_DTS
Duration                                 : 1 h 48 min
Bit rate mode                            : Variable
Bit rate                                 : 3 320 kb/s
Channel(s)                               : 6 channels
Channel layout                           : C L R Ls Rs LFE
Sampling rate                            : 48.0 kHz
Frame rate                               : 93.750 FPS (512 SPF)
Bit depth                                : 24 bits
Compression mode                         : Lossless
Stream size                              : 2.51 GiB (11%)
Title                                    : DTS-HD.MA.5.1
Language                                 : French
Default                                  : Yes
Forced                                   : No
Original source medium                   : Blu-ray
Text #1
ID                                       : 3
ID in the original source medium         : 4611 (0x1203)
Format                                   : PGS
Muxing mode                              : zlib
Codec ID                                 : S_HDMV/PGS
Codec ID/Info                            : Picture based subtitle format used on BDs/HD-DVDs
Duration                                 : 1 h 41 min
Bit rate                                 : 19.5 kb/s
Frame rate                               : 0.352 FPS
Count of elements                        : 2140
Stream size                              : 14.1 MiB (0%)
Title                                    : chs
Language                                 : Chinese
Default                                  : Yes
Forced                                   : No
Original source medium                   : Blu-ray
Text #2
ID                                       : 4
ID in the original source medium         : 4612 (0x1204)
Format                                   : PGS
Muxing mode                              : zlib
Codec ID                                 : S_HDMV/PGS
Codec ID/Info                            : Picture based subtitle format used on BDs/HD-DVDs
Duration                                 : 1 h 41 min
Bit rate                                 : 19.7 kb/s
Frame rate                               : 0.352 FPS
Count of elements                        : 2140
Stream size                              : 14.3 MiB (0%)
Title                                    : cht
Language                                 : Chinese
Default                                  : No
Forced                                   : No
Original source medium                   : Blu-ray
Text #3
ID                                       : 5
ID in the original source medium         : 4610 (0x1202)
Format                                   : PGS
Muxing mode                              : zlib
Codec ID                                 : S_HDMV/PGS
Codec ID/Info                            : Picture based subtitle format used on BDs/HD-DVDs
Duration                                 : 1 h 48 min
Bit rate                                 : 30.2 kb/s
Frame rate                               : 0.396 FPS
Count of elements                        : 2572
Stream size                              : 23.3 MiB (0%)
Title                                    : fre
Language                                 : French
Default                                  : No
Forced                                   : No
Original source medium                   : Blu-ray
Menu
00:00:00.000                             : en:Chapter 01
00:07:23.083                             : en:Chapter 02
00:10:34.833                             : en:Chapter 03
00:13:58.666                             : en:Chapter 04
00:24:26.791                             : en:Chapter 05
00:39:36.166                             : en:Chapter 06
00:47:42.500                             : en:Chapter 07
00:55:48.416                             : en:Chapter 08
01:07:19.250                             : en:Chapter 09
01:21:07.708                             : en:Chapter 10
01:27:09.125                             : en:Chapter 11
01:43:42.791                             : en:Chapter 12
部分资源为软字幕,移动端推荐播放器:MxPlayer,nPlayer,infuse ,其他播放器请自行尝试。
部分资源为软字幕,电脑端推荐播放器:PotPlayer,完美解码,KMPLAYER,其他播放器请自行尝试。
下载端推荐纯BT下载软件:qBittorrent,Bitcomet,uTorrent ,其他下载软件请自行尝试。不支持吸血迅雷。






~~~~~~~~~~~~~~~~~~~~~~~~~~~~~~~~~~~~~~~~~
[2013][其它][惊悚][BD-1080P]生死迷局[中文字幕].Mobius.2013.1080p.BluRay.Remux.AVC.DTS-HD.MA.5.1- 23.20GB

【文件列表】:


Mobius.2013.1080p.BluRay.Remux.AVC.DTS-HD.MA.5.1-SONYHD.



【下载地址列表】:


游客
文件下载链接就在这里,在您回复评论成功后才能显示。
请勿回复无意义的灌水内容。


下拉页面到最底部回复或者【点击此处快捷回复】,回复后返回此处即可查看下载链接。
如您没注册本站会员,可以点击注册本站,注册后即可回复下载。



软字幕无法在截图上展现,HDR版本/杜比视界版本截图会出现颜色异常,请使用支持的设备播放!






[img][/img]






[img][/img]

(HDR版本/杜比视界版本,截图会出现颜色异常,请使用支持的设备播放)

小贴士:【影视自媒体解说文案请移步:夏至文案解说网 www.xiazhi.vip

上一篇:[更 早][欧美][动作][BD-1080P]大侵袭[简繁英字幕].Invasion.U.S.A.1985.1080p.BluRay.x264.DTS- 12.00GB
下一篇:[2013][其它][惊悚][BD-1080P]生死迷局[中文字幕].Mobius.2013.1080p.BluRay.x264.DTS- 10.92GB
回复

使用道具 举报

您需要登录后才可以回帖 登录 | 立即注册

本版积分规则

Archiver|手机版|小众纪录片影视聚合

GMT+8, 2024-7-22 05:54 , Processed in 0.092014 second(s), 13 queries , Gzip On, Redis On.

Powered by 小众纪录片影视聚合 @2010-2023

Copyright © 2010-2024, https://www.xzjlp.com/.


免责说明:本站所有内容链接、图文介绍等均来自于互联网网友分享,本站仅支持web页面展示和文字介绍,绝不提供在线观看和存储服务,也不参与录制、上传、压片。若本站收录内容无意侵犯贵司版权,请发邮件到【a885185#163.com】联系本站,我们将在第一时间删除侵权内容。谢谢!

快速回复 返回顶部 返回列表