小众纪录片影视聚合

 找回密码
 立即注册
查看: 11|回复: 0

[蓝光电影] [更 早][其它][剧情][BD-1080P]雾港水手[简繁英字幕].Querelle.1982.CC.1080p.BluRay.x264.FLAC.1.0- 9.92GB

[复制链接]

113万

主题

113万

帖子

113万

积分

超级版主

Rank: 8Rank: 8

积分
1134588
发表于 2024-7-9 21:49:32 | 显示全部楼层 |阅读模式


[更 早][其它][剧情][BD-1080P]雾港水手[简繁英字幕].Querelle.1982.CC.1080p.BluRay.x264.FLAC.1.0- 9.92GB

完整标题:雾港水手[简繁英字幕].Querelle.1982.CC.1080p.BluRay.x264.FLAC.1.0-SONYHD 9.92GB
◎标  题 雾港水手
◎译  名 水手奎雷尔 / 水手奎莱尔
◎片  名 Querelle
◎年  代 1982
◎产  地 法国 / 西德
◎类  别 剧情 / 同性
◎语  言 英语
◎上映日期 1982-08-31(威尼斯电影节) / 1982-09-08(法国)
◎IMDb评分 6.6/10 (6891人评价)
◎IMDb链接 https://www.imdb.com/title/tt0084565/
◎豆瓣评分 7.3/10 (6121人评价)
◎豆瓣链接 https://movie.douban.com/subject/1293808/
◎片  长 108分钟
◎导  演 赖纳·维尔纳·法斯宾德 Rainer Werner Fassbinder
◎编  剧 赖纳·维尔纳·法斯宾德 Rainer Werner Fassbinder
       Burkhard Driest Burkhard Driest
       让·热内 Jean Genet
◎演  员 布拉德·戴维斯 Brad Davis
       弗兰科·内罗 Franco Nero
       让娜·莫罗 Jeanne Moreau
       洛朗·马莱 Laurent Malet
       汉诺·波西尔 Hanno Pöschl
       君特·考夫曼 Günther Kaufmann
       Burkhard Driest Burkhard Driest
       Roger Fritz Roger Fritz
       Dieter Schidor Dieter Schidor
       娜娅·布鲁克霍斯特 Natja Brunckhorst
       罗伯特·冯·阿克伦 Robert van Ackeren
       Werner Asam Werner Asam
       伊索尔德·巴尔特 Isolde Barth
       沃尔夫·格雷姆 Wolf Gremm
       Karl-Heinz von Hassel Karl-Heinz von Hassel
       Y Sa Lo Y Sa Lo
       弗兰克·瑞普洛 Frank Ripploh
       维图斯·策普里夏 Vitus Zeplichal
       Isa Jank Isa Jank
◎简  介
    一艘船停泊在布瑞斯特港,船上有个名叫奎雷尔的英俊水手(布拉德·戴维斯 Brad Davis 饰)。他被船上少校赛隆(弗兰克·尼洛 Franco Nero 饰)暗暗迷恋着,还和船长罗伯特(汉诺·波西尔 Hanno Pöschl 饰)保持暧昧关系;他勾搭当地酒吧老板诺诺(冈瑟·考夫曼 饰),主动在色子游戏里输给他以便和他发生关系;他贩毒,还杀掉了同伙,警察马里奥(伯克哈德·德里斯特 Burkhard Driest 饰)盯上了他,又迷上了他;年轻人吉尔(汉诺·波西尔 Hanno Pöschl 饰)也爱上了他,还被他嫁祸杀人罪名;诺诺的妻子吕西娜(让娜·莫罗 Jeanne Moreau 饰)也对他兴趣满满……                                    英俊的奎雷尔,狠心的奎雷尔,谁也说不清他到底爱谁,谁都甘愿做他手里的棋子,塞隆上校看着一切,知晓一切,每天对着录音机讲述自己的爱慕之情……##### MediaInfo ######
General
Unique ID                                : 296428959211336656505143077039930752852 (0xDF0224118E09E93392140D1342DA3F54)
Complete name                            : Querelle.1982.CC.1080p.BluRay.x264.FLAC.1.0-SONYHD.mkv
Duration                                 : 1 h 48 min
Overall bit rate mode                    : Variable
Overall bit rate                         : 13.1 Mb/s
Video
ID                                       : 1
Format                                   : AVC
Format/Info                              : Advanced Video Codec
Format profile                           : [email protected]
Format settings                          : CABAC / 4 Ref Frames
Format settings, CABAC                   : Yes
Format settings, Reference frames        : 4 frames
Codec ID                                 : V_MPEG4/ISO/AVC
Duration                                 : 1 h 48 min
Bit rate                                 : 12.7 Mb/s
Width                                    : 1 920 pixels
Height                                   : 816 pixels
Display aspect ratio                     : 2.35:1
Frame rate mode                          : Constant
Frame rate                               : 23.976 (24000/1001) FPS
Color space                              : YUV
Chroma subsampling                       : 4:2:0
Bit depth                                : 8 bits
Scan type                                : Progressive
Bits/(Pixel*Frame)                       : 0.339
Stream size                              : 9.68 GiB (98%)
Writing library                          : x264 core 164 r3085+55M 938b6d0 t_mod_New [(8 & 10)-bit@all X86_64]
Encoding settings                        : cabac=1 / ref=4 / deblock=1:-3:-3 / analyse=0x3:0x133 / me=umh / subme=11 / psy=1 / fade_compensate=0.00 / psy_rd=1.00:0.00 / mixed_ref=1 / me_range=48 / chroma_me=1 / trellis=2 / 8x8dct=1 / cqm=0 / deadzone=21,11 / fast_pskip=0 / chroma_qp_offset=-3 / threads=25 / lookahead_threads=6 / sliced_threads=0 / nr=0 / decimate=0 / interlaced=0 / bluray_compat=0 / constrained_intra=0 / fgo=0 / bframes=11 / b_pyramid=2 / b_adapt=2 / b_bias=0 / direct=3 / weightb=1 / open_gop=0 / weightp=2 / keyint=240 / keyint_min=1 / scenecut=40 / intra_refresh=0 / rc_lookahead=72 / rc=crf / mbtree=0 / crf=19.2200 / qcomp=0.60 / qpmin=0:0:0 / qpmax=69:69:69 / qpstep=4 / vbv_maxrate=62500 / vbv_bufsize=78125 / crf_max=0.0 / nal_hrd=none / filler=0 / ip_ratio=1.40 / pb_ratio=1.30 / aq=3:0.70 / aq-sensitivity=10.00 / aq-factor=1.00:1.00:1.00 / aq2=0 / aq3=0
Default                                  : Yes
Forced                                   : No
Audio
ID                                       : 2
Format                                   : FLAC
Format/Info                              : Free Lossless Audio Codec
Codec ID                                 : A_FLAC
Duration                                 : 1 h 48 min
Bit rate mode                            : Variable
Bit rate                                 : 251 kb/s
Channel(s)                               : 1 channel
Channel layout                           : C
Sampling rate                            : 48.0 kHz
Frame rate                               : 11.719 FPS (4096 SPF)
Bit depth                                : 16 bits
Compression mode                         : Lossless
Stream size                              : 195 MiB (2%)
Title                                    : English
Writing library                          : libFLAC 1.2.1 (UTC 2007-09-17)
Language                                 : English
Default                                  : Yes
Forced                                   : No
Text #1
ID                                       : 3
ID in the original source medium         : 4610 (0x1202)
Format                                   : PGS
Muxing mode                              : zlib
Codec ID                                 : S_HDMV/PGS
Codec ID/Info                            : Picture based subtitle format used on BDs/HD-DVDs
Duration                                 : 1 h 47 min
Bit rate                                 : 43.7 kb/s
Frame rate                               : 0.385 FPS
Count of elements                        : 2494
Stream size                              : 33.7 MiB (0%)
Title                                    : chs&eng
Language                                 : Chinese
Default                                  : Yes
Forced                                   : No
Original source medium                   : Blu-ray
Text #2
ID                                       : 4
ID in the original source medium         : 4611 (0x1203)
Format                                   : PGS
Muxing mode                              : zlib
Codec ID                                 : S_HDMV/PGS
Codec ID/Info                            : Picture based subtitle format used on BDs/HD-DVDs
Duration                                 : 1 h 47 min
Bit rate                                 : 43.9 kb/s
Frame rate                               : 0.385 FPS
Count of elements                        : 2494
Stream size                              : 33.9 MiB (0%)
Title                                    : cht&eng
Language                                 : Chinese
Default                                  : No
Forced                                   : No
Original source medium                   : Blu-ray
Text #3
ID                                       : 5
ID in the original source medium         : 4612 (0x1204)
Format                                   : PGS
Muxing mode                              : zlib
Codec ID                                 : S_HDMV/PGS
Codec ID/Info                            : Picture based subtitle format used on BDs/HD-DVDs
Duration                                 : 1 h 47 min
Bit rate                                 : 24.0 kb/s
Frame rate                               : 0.385 FPS
Count of elements                        : 2494
Stream size                              : 18.5 MiB (0%)
Title                                    : chs
Language                                 : Chinese
Default                                  : No
Forced                                   : No
Original source medium                   : Blu-ray
Text #4
ID                                       : 6
ID in the original source medium         : 4613 (0x1205)
Format                                   : PGS
Muxing mode                              : zlib
Codec ID                                 : S_HDMV/PGS
Codec ID/Info                            : Picture based subtitle format used on BDs/HD-DVDs
Duration                                 : 1 h 47 min
Bit rate                                 : 24.2 kb/s
Frame rate                               : 0.385 FPS
Count of elements                        : 2494
Stream size                              : 18.7 MiB (0%)
Title                                    : cht
Language                                 : Chinese
Default                                  : No
Forced                                   : No
Original source medium                   : Blu-ray
Text #5
ID                                       : 7
ID in the original source medium         : 4608 (0x1200)
Format                                   : PGS
Muxing mode                              : zlib
Codec ID                                 : S_HDMV/PGS
Codec ID/Info                            : Picture based subtitle format used on BDs/HD-DVDs
Duration                                 : 1 h 20 min
Bit rate                                 : 1 804 b/s
Frame rate                               : 0.013 FPS
Count of elements                        : 64
Stream size                              : 1.04 MiB (0%)
Title                                    : eng
Language                                 : English
Default                                  : No
Forced                                   : No
Original source medium                   : Blu-ray
Menu
00:00:00.000                             : en:Chapter 01
00:13:02.239                             : en:Chapter 02
00:17:37.264                             : en:Chapter 03
00:24:37.851                             : en:Chapter 04
00:32:10.053                             : en:Chapter 05
00:41:17.766                             : en:Chapter 06
00:48:30.449                             : en:Chapter 07
00:54:55.750                             : en:Chapter 08
00:58:17.243                             : en:Chapter 09
01:04:11.514                             : en:Chapter 10
01:08:53.796                             : en:Chapter 11
01:13:21.105                             : en:Chapter 12
01:17:28.477                             : en:Chapter 13
01:26:14.544                             : en:Chapter 14
01:34:30.831                             : en:Chapter 15
01:38:33.240                             : en:Chapter 16
01:45:53.555                             : en:Chapter 17
部分资源为软字幕,移动端推荐播放器:MxPlayer,nPlayer,infuse ,其他播放器请自行尝试。
部分资源为软字幕,电脑端推荐播放器:PotPlayer,完美解码,KMPLAYER,其他播放器请自行尝试。
下载端推荐纯BT下载软件:qBittorrent,Bitcomet,uTorrent ,其他下载软件请自行尝试。不支持吸血迅雷。






~~~~~~~~~~~~~~~~~~~~~~~~~~~~~~~~~~~~~~~~~
[更 早][其它][剧情][BD-1080P]雾港水手[简繁英字幕].Querelle.1982.CC.1080p.BluRay.x264.FLAC.1.0- 9.92GB

【文件列表】:


Querelle.1982.CC.1080p.BluRay.x264.FLAC.1.0-SONYHD.



【下载地址列表】:


游客
文件下载链接就在这里,在您回复评论成功后才能显示。
请勿回复无意义的灌水内容。


下拉页面到最底部回复或者【点击此处快捷回复】,回复后返回此处即可查看下载链接。
如您没注册本站会员,可以点击注册本站,注册后即可回复下载。



软字幕无法在截图上展现,HDR版本/杜比视界版本截图会出现颜色异常,请使用支持的设备播放!






[img][/img]






[img][/img]

(HDR版本/杜比视界版本,截图会出现颜色异常,请使用支持的设备播放)

小贴士:【影视自媒体解说文案请移步:夏至文案解说网 www.xiazhi.vip

上一篇:[更 早][其它][剧情][BD-1080P]雾港水手[简繁英字幕].Querelle.1982.CC.1080p.BluRay.Remux.AVC.FLAC.1.0- 27.24GB
下一篇:[更 早][其它][剧情][BD-1080P]雾港水手[简繁英字幕].Querelle.1982.CC.1080p.BluRay.x265.10bit.FLAC.1.0- 6.22GB
回复

使用道具 举报

您需要登录后才可以回帖 登录 | 立即注册

本版积分规则

Archiver|手机版|小众纪录片影视聚合

GMT+8, 2024-7-22 06:21 , Processed in 0.512750 second(s), 13 queries , Gzip On, Redis On.

Powered by 小众纪录片影视聚合 @2010-2023

Copyright © 2010-2024, https://www.xzjlp.com/.


免责说明:本站所有内容链接、图文介绍等均来自于互联网网友分享,本站仅支持web页面展示和文字介绍,绝不提供在线观看和存储服务,也不参与录制、上传、压片。若本站收录内容无意侵犯贵司版权,请发邮件到【a885185#163.com】联系本站,我们将在第一时间删除侵权内容。谢谢!

快速回复 返回顶部 返回列表