小众纪录片影视聚合

 找回密码
 立即注册
查看: 3|回复: 0

[蓝光电影] [2015][欧美][恐怖][BD-1080P]女巫[简繁英字幕].The.VVitch.A.New-England.Folktale.2015.1080p.BluRay.Remux.AVC.DTS-HD.M

[复制链接]

113万

主题

113万

帖子

113万

积分

超级版主

Rank: 8Rank: 8

积分
1134754
发表于 2024-7-9 21:51:52 | 显示全部楼层 |阅读模式


[2015][欧美][恐怖][BD-1080P]女巫[简繁英字幕].The.VVitch.A.New-England.Folktale.2015.1080p.BluRay.Remux.AVC.DTS-HD.M

完整标题:女巫[简繁英字幕].The.VVitch.A.New-England.Folktale.2015.1080p.BluRay.Remux.AVC.DTS-HD.MA.5.1-SONYHD 24.49GB
◎标  题 女巫
◎译  名 巫魍之灾(港) / 女巫:新英格兰的传说 / The Witch / The VVitch
◎片  名 The VVitch: A New-England Folktale
◎年  代 2015
◎产  地 美国 / 英国 / 加拿大 / 巴西
◎类  别 恐怖
◎语  言 英语
◎上映日期 2015-10-12(伦敦电影节) / 2016-02-19(美国)
◎IMDb评分 6.9/10 (271458人评价)
◎IMDb链接 https://www.imdb.com/title/tt4263482/
◎豆瓣评分 7.1/10 (36272人评价)
◎豆瓣链接 https://movie.douban.com/subject/26276364/
◎片  长 92分钟
◎导  演 罗伯特·艾格斯 Robert Eggers
◎编  剧 罗伯特·艾格斯 Robert Eggers
◎演  员 安雅·泰勒-乔伊 Anya Taylor-Joy
       拉尔夫·伊内森 Ralph Ineson
       凯特·迪基 Kate Dickie
       哈维·斯克林肖 Harvey Scrimshaw
       艾丽·格兰杰 Ellie Grainger
       卢卡斯·道森 Lucas Dawson
       朱利安·瑞钦斯 Julian Richings
       芭丝谢芭·加内特 Bathsheba Garnett
       莎拉·史蒂文森 Sarah Stephens
       丹尼尔·马力克 Daniel Malik
       德里克·赫德 Derek Herd
       薇芙·摩尔 Viv Moore
◎简  介
    故事发生在17世纪30年代的新英格兰,由于无法苟同教会的做法,虔诚的清教徒威廉(拉尔夫·尹爱森 Ralph Ineson 饰)遭到种植园的驱逐,被迫带着妻子凯瑟琳(凯特·迪基 Kate Dickie 饰)和一众儿女远迁来到一处荒芜所在。他们白手起家,历经艰辛,而尚在襁褓 中的儿子意外失踪则令一家人的心头蒙上挥之不去的阴影。天气恶劣,作物歉收,夫妻二人的关系陷入紧张,凯瑟琳心念下落不明的孩子,精神近于崩溃。在此期间,自感对孩子失踪负有主要责任的长女托马辛(安雅·泰勒-乔伊 Anya Taylor-Joy 饰)心情沉重,此后不久,大弟凯勒布(哈维·斯克林肖 Harvey Scrimshaw 饰)在丛林深处遭遇女巫,心智错乱。                                    一家人的生活彻底陷入混乱,他们能否在信仰中得到救赎?##### MediaInfo ######
General
Unique ID                                : 230290170950909315605765293703110875603 (0xAD40460B8472A09EFD8108A91DF859D3)
Complete name                            : The.VVitch.A.New-England.Folktale.2015.1080p.BluRay.Remux.AVC.DTS-HD.MA.5.1-SONYHD.mkv
Duration                                 : 1 h 32 min
Overall bit rate mode                    : Variable
Overall bit rate                         : 37.9 Mb/s
Video
ID                                       : 1
Format                                   : AVC
Format/Info                              : Advanced Video Codec
Format profile                           : [email protected]
Format settings                          : CABAC / 4 Ref Frames
Format settings, CABAC                   : Yes
Format settings, Reference frames        : 4 frames
Codec ID                                 : V_MPEG4/ISO/AVC
Duration                                 : 1 h 32 min
Bit rate mode                            : Variable
Bit rate                                 : 34.5 Mb/s
Maximum bit rate                         : 37.0 Mb/s
Width                                    : 1 920 pixels
Height                                   : 1 080 pixels
Display aspect ratio                     : 16:9
Frame rate mode                          : Constant
Frame rate                               : 23.976 (24000/1001) FPS
Color space                              : YUV
Chroma subsampling                       : 4:2:0
Bit depth                                : 8 bits
Scan type                                : Progressive
Bits/(Pixel*Frame)                       : 0.693
Stream size                              : 22.2 GiB (91%)
Default                                  : Yes
Forced                                   : No
Audio
ID                                       : 2
Format                                   : DTS XLL
Format/Info                              : Digital Theater Systems
Commercial name                          : DTS-HD Master Audio
Codec ID                                 : A_DTS
Duration                                 : 1 h 32 min
Bit rate mode                            : Variable
Bit rate                                 : 3 412 kb/s
Channel(s)                               : 6 channels
Channel layout                           : C L R Ls Rs LFE
Sampling rate                            : 48.0 kHz
Frame rate                               : 93.750 FPS (512 SPF)
Bit depth                                : 24 bits
Compression mode                         : Lossless
Stream size                              : 2.20 GiB (9%)
Title                                    : English
Language                                 : English
Default                                  : Yes
Forced                                   : No
Text #1
ID                                       : 3
Format                                   : PGS
Muxing mode                              : zlib
Codec ID                                 : S_HDMV/PGS
Codec ID/Info                            : Picture based subtitle format used on BDs/HD-DVDs
Duration                                 : 1 h 25 min
Bit rate                                 : 33.8 kb/s
Frame rate                               : 0.309 FPS
Count of elements                        : 1582
Stream size                              : 20.6 MiB (0%)
Title                                    : chs&eng
Language                                 : Chinese
Default                                  : Yes
Forced                                   : No
Text #2
ID                                       : 4
Format                                   : PGS
Muxing mode                              : zlib
Codec ID                                 : S_HDMV/PGS
Codec ID/Info                            : Picture based subtitle format used on BDs/HD-DVDs
Duration                                 : 1 h 25 min
Bit rate                                 : 34.0 kb/s
Frame rate                               : 0.309 FPS
Count of elements                        : 1582
Stream size                              : 20.7 MiB (0%)
Title                                    : cht&eng
Language                                 : Chinese
Default                                  : No
Forced                                   : No
Text #3
ID                                       : 5
Format                                   : PGS
Muxing mode                              : zlib
Codec ID                                 : S_HDMV/PGS
Codec ID/Info                            : Picture based subtitle format used on BDs/HD-DVDs
Duration                                 : 1 h 25 min
Bit rate                                 : 19.2 kb/s
Frame rate                               : 0.309 FPS
Count of elements                        : 1582
Stream size                              : 11.7 MiB (0%)
Title                                    : chs
Language                                 : Chinese
Default                                  : No
Forced                                   : No
Text #4
ID                                       : 6
Format                                   : PGS
Muxing mode                              : zlib
Codec ID                                 : S_HDMV/PGS
Codec ID/Info                            : Picture based subtitle format used on BDs/HD-DVDs
Duration                                 : 1 h 25 min
Bit rate                                 : 19.4 kb/s
Frame rate                               : 0.309 FPS
Count of elements                        : 1582
Stream size                              : 11.8 MiB (0%)
Title                                    : cht
Language                                 : Chinese
Default                                  : No
Forced                                   : No
Text #5
ID                                       : 7
Format                                   : PGS
Muxing mode                              : zlib
Codec ID                                 : S_HDMV/PGS
Codec ID/Info                            : Picture based subtitle format used on BDs/HD-DVDs
Duration                                 : 1 h 27 min
Bit rate                                 : 27.0 kb/s
Frame rate                               : 0.365 FPS
Count of elements                        : 1911
Stream size                              : 16.9 MiB (0%)
Title                                    : eng
Language                                 : English
Default                                  : No
Forced                                   : No
Menu
00:00:00.000                             : en:Chapter 01
00:04:44.158                             : en:Chapter 02
00:13:12.333                             : en:Chapter 03
00:18:51.672                             : en:Chapter 04
00:26:40.432                             : en:Chapter 05
00:29:47.869                             : en:Chapter 06
00:37:11.145                             : en:Chapter 07
00:42:09.068                             : en:Chapter 08
00:48:23.817                             : en:Chapter 09
00:53:23.867                             : en:Chapter 10
01:00:36.048                             : en:Chapter 11
01:04:13.557                             : en:Chapter 12
01:10:27.431                             : en:Chapter 13
01:13:55.430                             : en:Chapter 14
01:20:42.045                             : en:Chapter 15
01:25:14.901                             : en:Chapter 16
部分资源为软字幕,移动端推荐播放器:MxPlayer,nPlayer,infuse ,其他播放器请自行尝试。
部分资源为软字幕,电脑端推荐播放器:PotPlayer,完美解码,KMPLAYER,其他播放器请自行尝试。
下载端推荐纯BT下载软件:qBittorrent,Bitcomet,uTorrent ,其他下载软件请自行尝试。不支持吸血迅雷。






~~~~~~~~~~~~~~~~~~~~~~~~~~~~~~~~~~~~~~~~~
[2015][欧美][恐怖][BD-1080P]女巫[简繁英字幕].The.VVitch.A.New-England.Folktale.2015.1080p.BluRay.Remux.AVC.DTS-HD.M

【文件列表】:


The.VVitch.A.New-England.Folktale.2015.1080p.BluRay.Remux.AVC.DTS-HD.MA.5.1...



【下载地址列表】:


游客
文件下载链接就在这里,在您回复评论成功后才能显示。
请勿回复无意义的灌水内容。


下拉页面到最底部回复或者【点击此处快捷回复】,回复后返回此处即可查看下载链接。
如您没注册本站会员,可以点击注册本站,注册后即可回复下载。



软字幕无法在截图上展现,HDR版本/杜比视界版本截图会出现颜色异常,请使用支持的设备播放!






[img][/img]






[img][/img]

(HDR版本/杜比视界版本,截图会出现颜色异常,请使用支持的设备播放)

小贴士:【影视自媒体解说文案请移步:夏至文案解说网 www.xiazhi.vip

上一篇:[2015][欧美][剧情][BD-1080P]铜牌巨星[简繁英字幕].The.Bronze.2015.1080p.BluRay.x265.10bit.DTS- 4.80GB
下一篇:[2019][欧美][恐怖][BD-1080P]五音不全[简繁英字幕].Tone.Deaf.2019.1080p.BluRay.x264.DTS- 5.87GB
回复

使用道具 举报

您需要登录后才可以回帖 登录 | 立即注册

本版积分规则

Archiver|手机版|小众纪录片影视聚合

GMT+8, 2024-7-22 06:57 , Processed in 0.220409 second(s), 13 queries , Gzip On, Redis On.

Powered by 小众纪录片影视聚合 @2010-2023

Copyright © 2010-2024, https://www.xzjlp.com/.


免责说明:本站所有内容链接、图文介绍等均来自于互联网网友分享,本站仅支持web页面展示和文字介绍,绝不提供在线观看和存储服务,也不参与录制、上传、压片。若本站收录内容无意侵犯贵司版权,请发邮件到【a885185#163.com】联系本站,我们将在第一时间删除侵权内容。谢谢!

快速回复 返回顶部 返回列表