小众纪录片影视聚合

 找回密码
 立即注册
查看: 4|回复: 0

[蓝光电影] [2023][欧美][剧情][BD-1080P]五月十二月[简繁英字幕].May.December.2023.1080p.BluRay.x264.DTS- 12.23GB

[复制链接]

112万

主题

112万

帖子

112万

积分

超级版主

Rank: 8Rank: 8

积分
1128817
发表于 2024-7-9 21:52:15 | 显示全部楼层 |阅读模式


[2023][欧美][剧情][BD-1080P]五月十二月[简繁英字幕].May.December.2023.1080p.BluRay.x264.DTS- 12.23GB

完整标题:五月十二月[简繁英字幕].May.December.2023.1080p.BluRay.x264.DTS-SONYHD 12.23GB
◎标  题 五月十二月
◎译  名 五月的你,十二月的她(台)
◎片  名 May December
◎年  代 2023
◎产  地 美国
◎类  别 剧情
◎语  言 英语
◎上映日期 2023-05-20(戛纳电影节) / 2023-11-17(美国) / 2023-12-01(美国网络)
◎IMDb评分 7.4/10 (1792人评价)
◎IMDb链接 https://www.imdb.com/title/tt13651794/
◎豆瓣评分 6.9/10 (554人评价)
◎豆瓣链接 https://movie.douban.com/subject/35295277/
◎片  长 113分钟
◎导  演 托德·海因斯 Todd Haynes
◎编  剧 萨米·伯奇 Samy Burch
       亚历克斯·梅查尼克 Alex Mechanik
◎演  员 娜塔莉·波特曼 Natalie Portman
       朱丽安·摩尔 Julianne Moore
       查尔斯·梅尔顿 Charles Melton
       佩珀·柯达 Piper Curda
       D·W·莫菲特 D.W. Moffett
       科里·迈克尔·史密斯 Cory Michael Smith
       德鲁·谢伊德 Drew Scheid
       乔斯林·谢尔福 Jocelyn Shelfo
       伊丽莎白·于 Elizabeth Yu
       安德里亚·弗兰克尔 Andrea Frankle
       艾莉·麦卡洛克 Allie McCulloch
       余朝汉 Kelvin Han Yee
       劳伦斯·阿兰西奥 Lawrence Arancio
       查尔斯·格林 Charles Green
       海莉·威斯特 Hailey Wist
       汉斯·奥布玛 Hans Obma
       洛基·戴维斯 Rocky Davis
       扎卡里·布兰奇 Zachary Branch
       克里斯·坦齐斯 Chris Tenzis
       安妮·韦伯 Anne Werber
       安娜·梅岑采娃 Anna Mezentseva
◎简  介
    在这对备受瞩目的夫妇——格雷斯(朱丽安·摩尔 Julianne Moore 饰)和比她小23岁的丈夫乔伊(查尔斯·梅尔顿 Charles Melton 饰)成名于一本充满八卦的小报之后,他们的浪漫故事已经风靡全国整整20年。如今,他们准备送他们的双胞胎孩子去大学。同时,好莱坞女演员伊丽莎白(娜塔莉·波特曼 Natalie Portman 饰)正在为一部拍摄格雷斯和乔伊爱情故事的电影做着演出准备,为了更好地理解她的角色,她决定前去格雷斯和乔伊的家中生活一段时间。                                    乔伊从未真正面对过自己年轻时的过去,现在他已经超过30岁,成为了一个空巢家长,他开始直面生活的现实。在伊丽莎白和格雷斯互相审视对方的过程中,两位女性之间的相似之处和差异逐渐浮现。外部世界的压力也让这个家庭的动态关系逐渐出现裂痕,导致了一系列的冲突和挑战。##### MediaInfo ######
General
Unique ID                                : 65120182424068651411916579302847464205 (0x30FDB0E0E2220380689498E86D1EC30D)
Complete name                            : May.December.2023.1080p.BluRay.x264.DTS-SONYHD.mkv
Duration                                 : 1 h 57 min
Overall bit rate                         : 14.9 Mb/s
Video
ID                                       : 1
Format                                   : AVC
Format/Info                              : Advanced Video Codec
Format profile                           : [email protected]
Format settings                          : CABAC / 4 Ref Frames
Format settings, CABAC                   : Yes
Format settings, Reference frames        : 4 frames
Codec ID                                 : V_MPEG4/ISO/AVC
Duration                                 : 1 h 57 min
Bit rate                                 : 13.3 Mb/s
Width                                    : 1 920 pixels
Height                                   : 1 020 pixels
Display aspect ratio                     : 1.882
Frame rate mode                          : Constant
Frame rate                               : 23.976 (24000/1001) FPS
Color space                              : YUV
Chroma subsampling                       : 4:2:0
Bit depth                                : 8 bits
Scan type                                : Progressive
Bits/(Pixel*Frame)                       : 0.284
Stream size                              : 10.9 GiB (89%)
Title                                    : May.December.2023.1080p.BluRay.AVC.DTS-HD.MA.5.1-DIY@Audies
Writing library                          : x264 core 161 r3018+53 18a1d6c t_mod_New [(8 & 10)-bit@all X86_64]
Encoding settings                        : cabac=1 / ref=3 / deblock=1:-3:-3 / analyse=0x3:0x133 / me=umh / subme=11 / psy=1 / fade_compensate=0.00 / psy_rd=1.00:0.00 / mixed_ref=1 / me_range=48 / chroma_me=1 / trellis=2 / 8x8dct=1 / cqm=0 / deadzone=21,11 / fast_pskip=0 / chroma_qp_offset=-3 / threads=24 / lookahead_threads=6 / sliced_threads=0 / nr=0 / decimate=0 / interlaced=0 / bluray_compat=0 / constrained_intra=0 / fgo=0 / bframes=11 / b_pyramid=2 / b_adapt=2 / b_bias=0 / direct=3 / weightb=1 / open_gop=0 / weightp=2 / keyint=240 / keyint_min=1 / scenecut=40 / intra_refresh=0 / rc_lookahead=72 / rc=crf / mbtree=0 / crf=19.0000 / qcomp=0.70 / qpmin=0:0:0 / qpmax=69:69:69 / qpstep=4 / vbv_maxrate=62500 / vbv_bufsize=78125 / crf_max=0.0 / nal_hrd=none / filler=0 / ip_ratio=1.40 / pb_ratio=1.30 / aq=3:0.90 / aq-sensitivity=10.00 / aq-factor=1.00:1.00:1.00 / aq2=0 / aq3=0
Language                                 : English
Default                                  : Yes
Forced                                   : No
Audio
ID                                       : 2
ID in the original source medium         : 4352 (0x1100)
Format                                   : DTS
Format/Info                              : Digital Theater Systems
Codec ID                                 : A_DTS
Duration                                 : 1 h 57 min
Bit rate mode                            : Constant
Bit rate                                 : 1 509 kb/s
Channel(s)                               : 6 channels
Channel layout                           : C L R Ls Rs LFE
Sampling rate                            : 48.0 kHz
Frame rate                               : 93.750 FPS (512 SPF)
Bit depth                                : 24 bits
Compression mode                         : Lossy
Stream size                              : 1.24 GiB (10%)
Title                                    : DTS.5.1
Language                                 : English
Default                                  : Yes
Forced                                   : No
Original source medium                   : Blu-ray
Text #1
ID                                       : 3
ID in the original source medium         : 4609 (0x1201)
Format                                   : PGS
Muxing mode                              : zlib
Codec ID                                 : S_HDMV/PGS
Codec ID/Info                            : Picture based subtitle format used on BDs/HD-DVDs
Duration                                 : 1 h 51 min
Bit rate                                 : 47.3 kb/s
Frame rate                               : 0.357 FPS
Count of elements                        : 2378
Stream size                              : 37.6 MiB (0%)
Title                                    : chs&eng
Language                                 : Chinese
Default                                  : Yes
Forced                                   : No
Original source medium                   : Blu-ray
Text #2
ID                                       : 4
ID in the original source medium         : 4610 (0x1202)
Format                                   : PGS
Muxing mode                              : zlib
Codec ID                                 : S_HDMV/PGS
Codec ID/Info                            : Picture based subtitle format used on BDs/HD-DVDs
Duration                                 : 1 h 51 min
Bit rate                                 : 47.4 kb/s
Frame rate                               : 0.357 FPS
Count of elements                        : 2378
Stream size                              : 37.7 MiB (0%)
Title                                    : cht&eng
Language                                 : Chinese
Default                                  : No
Forced                                   : No
Original source medium                   : Blu-ray
Text #3
ID                                       : 5
ID in the original source medium         : 4611 (0x1203)
Format                                   : PGS
Muxing mode                              : zlib
Codec ID                                 : S_HDMV/PGS
Codec ID/Info                            : Picture based subtitle format used on BDs/HD-DVDs
Duration                                 : 1 h 51 min
Bit rate                                 : 27.4 kb/s
Frame rate                               : 0.357 FPS
Count of elements                        : 2378
Stream size                              : 21.8 MiB (0%)
Title                                    : chs
Language                                 : Chinese
Default                                  : No
Forced                                   : No
Original source medium                   : Blu-ray
Text #4
ID                                       : 6
ID in the original source medium         : 4612 (0x1204)
Format                                   : PGS
Muxing mode                              : zlib
Codec ID                                 : S_HDMV/PGS
Codec ID/Info                            : Picture based subtitle format used on BDs/HD-DVDs
Duration                                 : 1 h 51 min
Bit rate                                 : 27.5 kb/s
Frame rate                               : 0.357 FPS
Count of elements                        : 2378
Stream size                              : 21.9 MiB (0%)
Title                                    : cht
Language                                 : Chinese
Default                                  : No
Forced                                   : No
Original source medium                   : Blu-ray
Text #5
ID                                       : 7
ID in the original source medium         : 4608 (0x1200)
Format                                   : PGS
Muxing mode                              : zlib
Codec ID                                 : S_HDMV/PGS
Codec ID/Info                            : Picture based subtitle format used on BDs/HD-DVDs
Duration                                 : 1 h 55 min
Bit rate                                 : 41.9 kb/s
Frame rate                               : 0.486 FPS
Count of elements                        : 3356
Stream size                              : 34.4 MiB (0%)
Title                                    : eng
Language                                 : English
Default                                  : No
Forced                                   : No
Original source medium                   : Blu-ray
Menu
00:00:00.000                             : en:Chapter 01
00:10:33.007                             : en:Chapter 02
00:23:19.147                             : en:Chapter 03
00:38:04.907                             : en:Chapter 04
00:50:25.272                             : en:Chapter 05
01:02:46.304                             : en:Chapter 06
01:15:14.051                             : en:Chapter 07
01:27:27.408                             : en:Chapter 08
01:39:48.399                             : en:Chapter 09
01:52:36.708                             : en:Chapter 10
部分资源为软字幕,移动端推荐播放器:MxPlayer,nPlayer,infuse ,其他播放器请自行尝试。
部分资源为软字幕,电脑端推荐播放器:PotPlayer,完美解码,KMPLAYER,其他播放器请自行尝试。
下载端推荐纯BT下载软件:qBittorrent,Bitcomet,uTorrent ,其他下载软件请自行尝试。不支持吸血迅雷。






~~~~~~~~~~~~~~~~~~~~~~~~~~~~~~~~~~~~~~~~~
[2023][欧美][剧情][BD-1080P]五月十二月[简繁英字幕].May.December.2023.1080p.BluRay.x264.DTS- 12.23GB

【文件列表】:


May.December.2023.1080p.BluRay.x264.DTS-SONYHD.



【下载地址列表】:


游客
文件下载链接就在这里,在您回复评论成功后才能显示。
请勿回复无意义的灌水内容。


下拉页面到最底部回复或者【点击此处快捷回复】,回复后返回此处即可查看下载链接。
如您没注册本站会员,可以点击注册本站,注册后即可回复下载。



软字幕无法在截图上展现,HDR版本/杜比视界版本截图会出现颜色异常,请使用支持的设备播放!






[img][/img]






[img][/img]

(HDR版本/杜比视界版本,截图会出现颜色异常,请使用支持的设备播放)

小贴士:【影视自媒体解说文案请移步:夏至文案解说网 www.xiazhi.vip

上一篇:[2024][台湾][剧情][WEB-1080P]小子[国语配音/中文字幕].Kids.2024.1080p.Hami.WEB-DL.H264.AAC- 5.61GB
下一篇:[2021][台湾][科幻][WEB-1080P]复身犯[国语配音/中文字幕].Plurality.2021.1080p.Hami.WEB-DL.H264.AAC- 5.85GB
回复

使用道具 举报

您需要登录后才可以回帖 登录 | 立即注册

本版积分规则

Archiver|手机版|小众纪录片影视聚合

GMT+8, 2024-7-17 00:11 , Processed in 0.573131 second(s), 12 queries , Gzip On, Redis On.

Powered by 小众纪录片影视聚合 @2010-2023

Copyright © 2010-2024, https://www.xzjlp.com/.


免责说明:本站所有内容链接、图文介绍等均来自于互联网网友分享,本站仅支持web页面展示和文字介绍,绝不提供在线观看和存储服务,也不参与录制、上传、压片。若本站收录内容无意侵犯贵司版权,请发邮件到【a885185#163.com】联系本站,我们将在第一时间删除侵权内容。谢谢!

快速回复 返回顶部 返回列表