小众纪录片影视聚合

 找回密码
 立即注册
查看: 10|回复: 0

[蓝光电影] [2023][大陆][动作][BD-4K]封神第一部:朝歌风云[中文字幕/国语配音].2023.2160p.UHD.BluRay.Remux.HDR.HEVC.DTS-HD.MA5.1-ParkHD 7

[复制链接]

113万

主题

113万

帖子

113万

积分

超级版主

Rank: 8Rank: 8

积分
1134556
发表于 2024-7-9 21:52:35 | 显示全部楼层 |阅读模式


[2023][大陆][动作][BD-4K]封神第一部:朝歌风云[中文字幕/国语配音].2023.2160p.UHD.BluRay.Remux.HDR.HEVC.DTS-HD.MA5.1-ParkHD 7

完整标题:封神第一部:朝歌风云[中文字幕/国语配音].2023.2160p.UHD.BluRay.Remux.HDR.HEVC.DTS-HD.MA5.1-ParkHD 70.75GB
◎标  题 封神第一部:朝歌风云
◎译  名 封神第一部 / 封神三部曲1 / 封神演义系列·龙之战 / 封神三部曲之妖乱国殇 / Creation of the Gods Ⅰ: Kingdom of Storms / Creation of the Gods Ⅰ
◎年  代 2023
◎产  地 中国大陆
◎类  别 动作 / 战争 / 奇幻 / 古装
◎语  言 汉语普通话
◎上映日期 2023-07-20(中国大陆) / 2023-07-15(大规模点映)
◎IMDb评分 6.7/10 (3980人评价)
◎IMDb链接 https://www.imdb.com/title/tt6979756/
◎豆瓣评分 7.8/10 (1163235人评价)
◎豆瓣链接 https://movie.douban.com/subject/10604086/
◎片  长 148分钟
◎导  演 乌尔善 Wuershan
◎编  剧 冉平 Ping Ran
       冉甲男 Jia-nan Ran
       乌尔善 Wuershan
       曹升 Sheng Cao
       许仲琳 Zhonglin Xu
◎演  员 费翔 Kris Phillips
       李雪健 Xuejian Li
       黄渤 Bo Huang
       于适 Yosh Yu
       陈牧驰 Luke Chen
       娜然  Narana Erdyneeva
       此沙 J_Black
       武亚凡 Yafan Wu
       夏雨 Yu Xia
       袁泉 Quan Yuan
       王洛勇 Luoyong Wang
       侯雯元 Wenyuan Hou
       黄曦彦 Tim Huang
       李昀锐 Yunrui Li
       杨玏 Le Yang
       陈坤 Kun Chen
       许还山 Huanshan Xu
       高曙光 Shuguang Gao
       冯绍峰 Shaofeng Feng
       杨立新 LiXin Yang
       丁勇岱 Yongdai Ding
       高冬平 Dongping Gao
       徐冲 Ashton Xu
       韩鹏翼 Pengyi Han
       单敬尧  Nick
       吴汉坤 Ken Wu
       百力嘎 Bayalag
       刘乐 Willington Liu
       许翔 Xiang Xu
       刘涵 Han Liu
       徐菲 Fei Xu
       孙睿 Rooy Sun
       耿业庭 Yeting Geng
       金志浩 Zhihao Jin
       屈愉超 Yucao Qu
       黄涛 Tao Huang
       樊汶东 Wendong Fan
       姜宝成 Baocheng Jiang
       阿仁 Aren
       米铁增 Tiezen Mi
       僧格仁钦 Senggerenqin
       马文忠 Wenzhong Ma
       宁文彤 Wentong Ning
       张晶伟 Jingwei Zhang
       杨添皓 Tianhao Yang
       李泽宇 Zeyu Li
       夏晨旭 Chenxu Xia
       宋宁峰 Ningfeng Song
       俞颖 Ying Yu
       吴超 Chao Wu
       杨大鹏 Dapeng Yang
       赵磊 Lei Zhao
       张振煊 Zhenxuan Zhang
       宋渡宇 Duyu Song
       文波 Bo Wen
       图门巴雅尔 Tumenbayaer
       慕晓博 Xiaobo Mu
       春晓 Xiao Chun
       其勒木格
       张雪菡 Xuehan Zhang
       钱波 Bo Qian
       巴雅尔图 Bayaertu
       吴兴国 Hsing-kuo Wu
       那尔那茜 Nashi
       刘潮 Chao Liu
       张艺泷 Yilong Zhang
       孙煌辰 Huangchen Sun
       艾力江·库尔班 Alijang Kuerban
       孙鹏 Peng Sun
       徐学亭 Xueting Xu
       歪歪 Fuzheng Zhang
◎简  介
    天寒地冻,杀气逼人。大商二王子殷寿(费翔 饰)带领亲手调教的质子旅和殷商大军征讨叛乱的冀州侯苏护,却无意间解除了轩辕坟中妖狐的封印。妖狐附身苏护之女妲己(娜然 饰)的身上,被殷寿带回朝歌献给父王和王兄。夜宴之上,大王子智乱神迷,拔剑弑父。在此之后,殷寿继承王位,而天降灾异又迫使他做出自焚祭天的决定。与此同时,昆仑仙人姜子牙(黄渤 饰)携封神榜下山,寻找天下共主,以期救拔苍生。在朝歌期间,他觉察到殷寿的残暴,遂匆匆逃离。另一方面,曾视殷寿为明主的王子殷郊(陈牧驰 饰)以及西伯侯质子姬发(于适 饰)也发现了商王的私欲和妲己的诡异之处。                                    阴云密布的朝歌,即将掀起一场血雨腥风……##### MediaInfo ######
General
Unique ID                                : 104211530994435263381274240772056712062 (0x4E66692ACBB9CA5A3193172B3292837E)
Complete name                            : Creation.of.the.Gods.I.Kingdom.of.Storms.2023.2160p.UHD.BluRay.Remux.HDR.HEVC.DTS-HD.MA5.1-ParkHD.mkv
Duration                                 : 2 h 28 min
Overall bit rate mode                    : Variable
Overall bit rate                         : 68.0 Mb/s
Video
ID                                       : 1
ID in the original source medium         : 4113 (0x1011)
Format                                   : HEVC
Format/Info                              : High Efficiency Video Coding
Format profile                           : Main [email protected]@High
HDR format                               : SMPTE ST 2086, HDR10 compatible
Codec ID                                 : V_MPEGH/ISO/HEVC
Duration                                 : 2 h 28 min
Bit rate                                 : 65.0 Mb/s
Width                                    : 3 840 pixels
Height                                   : 2 160 pixels
Display aspect ratio                     : 16:9
Frame rate mode                          : Constant
Frame rate                               : 23.976 (24000/1001) FPS
Color space                              : YUV
Chroma subsampling                       : 4:2:0 (Type 2)
Bit depth                                : 10 bits
Bits/(Pixel*Frame)                       : 0.327
Stream size                              : 67.6 GiB (96%)
Default                                  : Yes
Forced                                   : No
Color range                              : Limited
Color primaries                          : BT.2020
Transfer characteristics                 : PQ
Matrix coefficients                      : BT.2020 non-constant
Mastering display color primaries        : Display P3
Mastering display luminance              : min: 0.0050 cd/m2, max: 1000 cd/m2
Maximum Content Light Level              : 719 cd/m2
Maximum Frame-Average Light Level        : 553 cd/m2
Original source medium                   : Blu-ray
Audio
ID                                       : 2
ID in the original source medium         : 4352 (0x1100)
Format                                   : DTS XLL
Format/Info                              : Digital Theater Systems
Commercial name                          : DTS-HD Master Audio
Codec ID                                 : A_DTS
Duration                                 : 2 h 28 min
Bit rate mode                            : Variable
Bit rate                                 : 2 951 kb/s
Channel(s)                               : 6 channels
Channel layout                           : C L R Ls Rs LFE
Sampling rate                            : 96.0 kHz
Frame rate                               : 187.500 FPS (512 SPF)
Bit depth                                : 16 bits
Compression mode                         : Lossless
Delay relative to video                  : 24 s 357 ms
Stream size                              : 3.06 GiB (4%)
Language                                 : Chinese
Default                                  : Yes
Forced                                   : No
Original source medium                   : Blu-ray
Text #1
ID                                       : 3
ID in the original source medium         : 4768 (0x12A0)
Format                                   : PGS
Muxing mode                              : zlib
Codec ID                                 : S_HDMV/PGS
Codec ID/Info                            : Picture based subtitle format used on BDs/HD-DVDs
Duration                                 : 2 h 26 min
Bit rate                                 : 19.7 kb/s
Frame rate                               : 0.334 FPS
Count of elements                        : 2945
Stream size                              : 20.7 MiB (0%)
Language                                 : Chinese
Default                                  : Yes
Forced                                   : No
Original source medium                   : Blu-ray
Text #2
ID                                       : 4
ID in the original source medium         : 4770 (0x12A2)
Format                                   : PGS
Muxing mode                              : zlib
Codec ID                                 : S_HDMV/PGS
Codec ID/Info                            : Picture based subtitle format used on BDs/HD-DVDs
Duration                                 : 2 h 26 min
Bit rate                                 : 12.7 kb/s
Frame rate                               : 0.334 FPS
Count of elements                        : 2945
Stream size                              : 13.3 MiB (0%)
Language                                 : Chinese
Default                                  : Yes
Forced                                   : No
Original source medium                   : Blu-ray
Text #3
ID                                       : 5
ID in the original source medium         : 4771 (0x12A3)
Format                                   : PGS
Muxing mode                              : zlib
Codec ID                                 : S_HDMV/PGS
Codec ID/Info                            : Picture based subtitle format used on BDs/HD-DVDs
Duration                                 : 2 h 26 min
Bit rate                                 : 13.0 kb/s
Frame rate                               : 0.334 FPS
Count of elements                        : 2945
Stream size                              : 13.7 MiB (0%)
Language                                 : Chinese
Default                                  : Yes
Forced                                   : No
Original source medium                   : Blu-ray
Text #4
ID                                       : 6
ID in the original source medium         : 4772 (0x12A4)
Format                                   : PGS
Muxing mode                              : zlib
Codec ID                                 : S_HDMV/PGS
Codec ID/Info                            : Picture based subtitle format used on BDs/HD-DVDs
Duration                                 : 2 h 26 min
Bit rate                                 : 22.9 kb/s
Frame rate                               : 0.330 FPS
Count of elements                        : 2912
Stream size                              : 24.1 MiB (0%)
Language                                 : Chinese
Default                                  : Yes
Forced                                   : No
Original source medium                   : Blu-ray
Text #5
ID                                       : 7
ID in the original source medium         : 4773 (0x12A5)
Format                                   : PGS
Muxing mode                              : zlib
Codec ID                                 : S_HDMV/PGS
Codec ID/Info                            : Picture based subtitle format used on BDs/HD-DVDs
Duration                                 : 2 h 26 min
Bit rate                                 : 23.2 kb/s
Frame rate                               : 0.330 FPS
Count of elements                        : 2912
Stream size                              : 24.4 MiB (0%)
Language                                 : Chinese
Default                                  : Yes
Forced                                   : No
Original source medium                   : Blu-ray
Menu
00:00:00.000                             : en:第 01 章
00:16:17.977                             : en:第 02 章
00:29:18.214                             : en:第 03 章
00:39:33.871                             : en:第 04 章
00:52:52.419                             : en:第 05 章
01:06:48.421                             : en:第 06 章
01:22:55.553                             : en:第 07 章
01:35:01.654                             : en:第 08 章
01:44:33.141                             : en:第 09 章
02:00:11.621                             : en:第 10 章
02:13:18.824                             : en:第 11 章
02:26:07.216                             : en:第 12 章
部分资源为软字幕,移动端推荐播放器:MxPlayer,nPlayer,infuse ,其他播放器请自行尝试。
部分资源为软字幕,电脑端推荐播放器:PotPlayer,完美解码,KMPLAYER,其他播放器请自行尝试。
下载端推荐纯BT下载软件:qBittorrent,Bitcomet,uTorrent ,其他下载软件请自行尝试。不支持吸血迅雷。






~~~~~~~~~~~~~~~~~~~~~~~~~~~~~~~~~~~~~~~~~
[2023][大陆][动作][BD-4K]封神第一部:朝歌风云[中文字幕/国语配音].2023.2160p.UHD.BluRay.Remux.HDR.HEVC.DTS-HD.MA5.1-ParkHD 7

【文件列表】:


2023.2160p.UHD.BluRay.Remux.HDR.HEVC.DTS-HD.MA5.1-ParkHD.



【下载地址列表】:


游客
文件下载链接就在这里,在您回复评论成功后才能显示。
请勿回复无意义的灌水内容。


下拉页面到最底部回复或者【点击此处快捷回复】,回复后返回此处即可查看下载链接。
如您没注册本站会员,可以点击注册本站,注册后即可回复下载。



软字幕无法在截图上展现,HDR版本/杜比视界版本截图会出现颜色异常,请使用支持的设备播放!






[img][/img]






[img][/img]

(HDR版本/杜比视界版本,截图会出现颜色异常,请使用支持的设备播放)

小贴士:【影视自媒体解说文案请移步:夏至文案解说网 www.xiazhi.vip

上一篇:[2023][大陆][动作][WEB-4K]封神第一部:朝歌风云[国语音轨/简繁英字幕].2023.2160p.BluRay.x265.10bit.DTS-HD.MA.5.1- 29.18GB
下一篇:[2017][其它][剧情][BD-1080P]至暗时刻[国英多音轨/中文字幕/特效字幕].Darkest.Hour.2017.EUR.BluRay.1080p.HDR.AAC2.0.x264-
回复

使用道具 举报

您需要登录后才可以回帖 登录 | 立即注册

本版积分规则

Archiver|手机版|小众纪录片影视聚合

GMT+8, 2024-7-22 06:15 , Processed in 0.075666 second(s), 12 queries , Gzip On, Redis On.

Powered by 小众纪录片影视聚合 @2010-2023

Copyright © 2010-2024, https://www.xzjlp.com/.


免责说明:本站所有内容链接、图文介绍等均来自于互联网网友分享,本站仅支持web页面展示和文字介绍,绝不提供在线观看和存储服务,也不参与录制、上传、压片。若本站收录内容无意侵犯贵司版权,请发邮件到【a885185#163.com】联系本站,我们将在第一时间删除侵权内容。谢谢!

快速回复 返回顶部 返回列表