小众纪录片影视聚合

 找回密码
 立即注册
查看: 8|回复: 0

[蓝光电影] [2012][其它][剧情][BD-1080P]间谍[中文字幕/国语配音].Shpion.2012.1080p.BluRay.x264.DTS-HD.MA.7.1-ParkHD 9.23GB

[复制链接]

116万

主题

116万

帖子

116万

积分

超级版主

Rank: 8Rank: 8

积分
1167997
发表于 2024-7-9 21:53:26 | 显示全部楼层 |阅读模式


[2012][其它][剧情][BD-1080P]间谍[中文字幕/国语配音].Shpion.2012.1080p.BluRay.x264.DTS-HD.MA.7.1-ParkHD 9.23GB

完整标题:间谍[中文字幕/国语配音].Shpion.2012.1080p.BluRay.x264.DTS-HD.MA.7.1-ParkHD 9.23GB
◎标  题 间谍
◎译  名 Shpion / Spy
◎片  名 Шпион
◎年  代 2012
◎产  地 俄罗斯
◎类  别 剧情
◎语  言 俄语
◎上映日期 2012-04-05(俄罗斯)
◎IMDb评分 5.4/10 (1275人评价)
◎IMDb链接 https://www.imdb.com/title/tt2321517/
◎豆瓣评分 6.6/10 (190人评价)
◎豆瓣链接 https://movie.douban.com/subject/10766234/
◎片  长 99分钟
◎导  演 安德列·克拉夫丘克 Andrey Kravchuk
       亚历克西·安德里亚诺夫 Aleksey Andrianov
◎编  剧 费拉基米尔·瓦鲁瑟斯基 Vladimir Valutskiy
◎演  员 费奥多尔·邦达尔丘克 Fyodor Bondarchuk
       维克多·维尔比斯基 Viktor Verzhbitskiy
       丹尼拉·科兹洛夫斯基 Danila Kozlovsky
       维柯托里娅·托尔斯托加诺娃 Viktoriya Tolstoganova
       弗拉基米尔·叶皮凡采夫 Vladimir Yepifantsev
       安娜·奇波夫斯卡娅 Anna Chipovskaya
◎简  介
    1941年春,在莫斯科市中心,两个情报部门正展开着激烈对决。希特勒秘密行动小组的目的就是给斯大林提供德国进攻苏联的错误情报。国安政治委员奥克季亚布里斯基和中尉多林是法西斯间谍组织里面的天才。大历史环境下的战斗,马上就要开始了。##### MediaInfo ######
General
Unique ID                                : 275706670736983638873600796475508266987 (0xCF6B2C5DA61609582C49C16476BE17EB)
Complete name                            : Shpion.2012.1080p.BluRay.x264.DTS-HD.MA.7.1-ParkHD.mkv
Duration                                 : 1 h 48 min
Overall bit rate mode                    : Variable
Overall bit rate                         : 12.2 Mb/s
Video
ID                                       : 1
Format                                   : AVC
Format/Info                              : Advanced Video Codec
Format profile                           : [email protected]
Format settings                          : CABAC / 4 Ref Frames
Format settings, CABAC                   : Yes
Format settings, Reference frames        : 4 frames
Codec ID                                 : V_MPEG4/ISO/AVC
Duration                                 : 1 h 48 min
Bit rate                                 : 9 470 kb/s
Width                                    : 1 920 pixels
Height                                   : 816 pixels
Display aspect ratio                     : 2.35:1
Frame rate mode                          : Constant
Frame rate                               : 24.000 FPS
Color space                              : YUV
Chroma subsampling                       : 4:2:0
Bit depth                                : 8 bits
Scan type                                : Progressive
Bits/(Pixel*Frame)                       : 0.252
Stream size                              : 7.17 GiB (78%)
Writing library                          : x264 core 164 r3085+55M 938b6d0 t_mod_New [(8 & 10)-bit@all X86_64]
Encoding settings                        : cabac=1 / ref=4 / deblock=1:-3:-3 / analyse=0x3:0x113 / me=umh / subme=11 / psy=1 / fade_compensate=0.00 / psy_rd=1.00:0.05 / mixed_ref=1 / me_range=128 / chroma_me=1 / trellis=2 / 8x8dct=1 / cqm=0 / deadzone=21,11 / fast_pskip=0 / chroma_qp_offset=-4 / threads=24 / lookahead_threads=4 / sliced_threads=0 / nr=0 / decimate=0 / interlaced=0 / bluray_compat=0 / constrained_intra=0 / fgo=0 / bframes=8 / b_pyramid=2 / b_adapt=2 / b_bias=0 / direct=3 / weightb=1 / open_gop=0 / weightp=2 / keyint=250 / keyint_min=24 / scenecut=40 / intra_refresh=0 / rc_lookahead=60 / rc=crf / mbtree=0 / crf=20.4000 / qcomp=0.60 / qpmin=0:0:0 / qpmax=69:69:69 / qpstep=4 / vbv_maxrate=50000 / vbv_bufsize=40000 / crf_max=0.0 / nal_hrd=none / filler=0 / ip_ratio=1.40 / pb_ratio=1.30 / aq=3:0.90 / aq-sensitivity=10.00 / aq-factor=1.00:1.00:1.00 / aq2=0 / aq3=0
Default                                  : Yes
Forced                                   : No
Audio #1
ID                                       : 2
ID in the original source medium         : 4353 (0x1101)
Format                                   : DTS XLL
Format/Info                              : Digital Theater Systems
Commercial name                          : DTS-HD Master Audio
Codec ID                                 : A_DTS
Duration                                 : 1 h 48 min
Bit rate mode                            : Variable
Bit rate                                 : 2 496 kb/s
Channel(s)                               : 8 channels
Channel layout                           : C L R LFE Lb Rb Lss Rss
Sampling rate                            : 48.0 kHz
Frame rate                               : 93.750 FPS (512 SPF)
Bit depth                                : 16 bits
Compression mode                         : Lossless
Stream size                              : 1.89 GiB (20%)
Title                                    : Russian
Language                                 : Russian
Default                                  : Yes
Forced                                   : No
Original source medium                   : Blu-ray
Audio #2
ID                                       : 3
ID in the original source medium         : 4354 (0x1102)
Format                                   : AC-3
Format/Info                              : Audio Coding 3
Commercial name                          : Dolby Digital
Codec ID                                 : A_AC3
Duration                                 : 1 h 48 min
Bit rate mode                            : Constant
Bit rate                                 : 192 kb/s
Channel(s)                               : 2 channels
Channel layout                           : L R
Sampling rate                            : 48.0 kHz
Frame rate                               : 31.250 FPS (1536 SPF)
Compression mode                         : Lossy
Stream size                              : 149 MiB (2%)
Title                                    : Mandarin
Language                                 : Chinese
Service kind                             : Complete Main
Default                                  : No
Forced                                   : No
Original source medium                   : Blu-ray
Text #1
ID                                       : 4
ID in the original source medium         : 4609 (0x1201)
Format                                   : PGS
Muxing mode                              : zlib
Codec ID                                 : S_HDMV/PGS
Codec ID/Info                            : Picture based subtitle format used on BDs/HD-DVDs
Duration                                 : 1 h 42 min
Bit rate                                 : 19.7 kb/s
Frame rate                               : 0.294 FPS
Count of elements                        : 1807
Stream size                              : 14.5 MiB (0%)
Title                                    : chs
Language                                 : Chinese
Default                                  : Yes
Forced                                   : No
Original source medium                   : Blu-ray
Text #2
ID                                       : 5
ID in the original source medium         : 4610 (0x1202)
Format                                   : PGS
Muxing mode                              : zlib
Codec ID                                 : S_HDMV/PGS
Codec ID/Info                            : Picture based subtitle format used on BDs/HD-DVDs
Duration                                 : 1 h 42 min
Bit rate                                 : 20.3 kb/s
Frame rate                               : 0.294 FPS
Count of elements                        : 1807
Stream size                              : 14.9 MiB (0%)
Title                                    : cht
Language                                 : Chinese
Default                                  : No
Forced                                   : No
Original source medium                   : Blu-ray
Menu
00:00:00.000                             : en:Chapter 01
00:13:28.250                             : en:Chapter 02
00:19:10.041                             : en:Chapter 03
00:28:26.500                             : en:Chapter 04
00:37:04.958                             : en:Chapter 05
00:45:32.500                             : en:Chapter 06
00:52:47.291                             : en:Chapter 07
01:02:19.375                             : en:Chapter 08
01:14:57.541                             : en:Chapter 09
01:24:27.666                             : en:Chapter 10
01:34:40.833                             : en:Chapter 11
01:42:47.416                             : en:Chapter 12
部分资源为软字幕,移动端推荐播放器:MxPlayer,nPlayer,infuse ,其他播放器请自行尝试。
部分资源为软字幕,电脑端推荐播放器:PotPlayer,完美解码,KMPLAYER,其他播放器请自行尝试。
下载端推荐纯BT下载软件:qBittorrent,Bitcomet,uTorrent ,其他下载软件请自行尝试。不支持吸血迅雷。






~~~~~~~~~~~~~~~~~~~~~~~~~~~~~~~~~~~~~~~~~
[2012][其它][剧情][BD-1080P]间谍[中文字幕/国语配音].Shpion.2012.1080p.BluRay.x264.DTS-HD.MA.7.1-ParkHD 9.23GB

【文件列表】:


Shpion.2012.1080p.BluRay.x264.DTS-HD.MA.7.1-ParkHD.



【下载地址列表】:


游客
文件下载链接就在这里,在您回复评论成功后才能显示。
请勿回复无意义的灌水内容。


下拉页面到最底部回复或者【点击此处快捷回复】,回复后返回此处即可查看下载链接。
如您没注册本站会员,可以点击注册本站,注册后即可回复下载。



软字幕无法在截图上展现,HDR版本/杜比视界版本截图会出现颜色异常,请使用支持的设备播放!






[img][/img]






[img][/img]

(HDR版本/杜比视界版本,截图会出现颜色异常,请使用支持的设备播放)

小贴士:【影视自媒体解说文案请移步:夏至文案解说网 www.xiazhi.vip

上一篇:[2012][其它][剧情][BD-1080P]间谍[中文字幕/国语配音].Shpion.2012.1080p.BluRay.Remux.AVC.DTS-HD.MA.7.1-ParkHD 17.99GB
下一篇:[2012][其它][剧情][BD-1080P]间谍[中文字幕/国语配音].Shpion.2012.1080p.BluRay.x265.10bit.DTS-HD.MA.7.1-ParkHD 6.73GB
回复

使用道具 举报

您需要登录后才可以回帖 登录 | 立即注册

本版积分规则

Archiver|手机版|小众纪录片影视聚合

GMT+8, 2024-7-25 02:36 , Processed in 0.121190 second(s), 11 queries , Gzip On, Redis On.

Powered by 小众纪录片影视聚合 @2010-2023

Copyright © 2010-2024, https://www.xzjlp.com/.


免责说明:本站所有内容链接、图文介绍等均来自于互联网网友分享,本站仅支持web页面展示和文字介绍,绝不提供在线观看和存储服务,也不参与录制、上传、压片。若本站收录内容无意侵犯贵司版权,请发邮件到【a885185#163.com】联系本站,我们将在第一时间删除侵权内容。谢谢!

快速回复 返回顶部 返回列表