小众纪录片影视聚合

 找回密码
 立即注册
查看: 6|回复: 0

[蓝光电影] [2024][欧美][恐怖][BD-1080P]无瑕修女[简繁英字幕].Immaculate.2024.1080p.BluRay.Remux.AVC.DTS-HD.MA.5.1- 17.60GB

[复制链接]

112万

主题

112万

帖子

112万

积分

超级版主

Rank: 8Rank: 8

积分
1128817
发表于 7 天前 | 显示全部楼层 |阅读模式


[2024][欧美][恐怖][BD-1080P]无瑕修女[简繁英字幕].Immaculate.2024.1080p.BluRay.Remux.AVC.DTS-HD.MA.5.1- 17.60GB

完整标题:无瑕修女[简繁英字幕].Immaculate.2024.1080p.BluRay.Remux.AVC.DTS-HD.MA.5.1-SONYHD 17.60GB
◎标  题 无瑕修女
◎译  名 无瑕 / 魔胎(港) / 鬼圣胎(台)
◎片  名 Immaculate
◎年  代 2024
◎产  地 美国 / 意大利
◎类  别 恐怖
◎语  言 英语 / 意大利语
◎上映日期 2024-03-12(西南偏南电影节) / 2024-03-22(美国)
◎IMDb评分 5.8/10 (28549人评价)
◎IMDb链接 https://www.imdb.com/title/tt23137390/
◎豆瓣评分 5.6/10 (5765人评价)
◎豆瓣链接 https://movie.douban.com/subject/36140071/
◎片  长 89分钟
◎导  演 迈克尔·莫汉 Michael Mohan
◎编  剧 安德鲁·洛贝尔 Andrew Lobel
◎演  员 西德尼·斯维尼 Sydney Sweeney
       阿尔瓦罗·莫奇 Álvaro Morte
       西蒙纳·塔巴斯科 Simona Tabasco
       贝内黛塔·波尔卡罗利 Benedetta Porcaroli
       乔治·科兰杰利 Giorgio Colangeli
       朵拉·罗马诺 Dora Romano
       朱莉亚·海斯菲尔德·迪·伦兹 Giulia Heathfield Di Renzi
       吉皮耶罗·朱迪卡 Giampiero Judica
       贝蒂·佩德拉兹 Betty Pedrazzi
       朱塞佩·洛·皮科洛 Giuseppe Lo Piccolo
       克里斯蒂娜·奇拿利娅 Cristina Chinaglia
       尼可洛·森尼 Niccolò Senni
       伊莎贝尔·德桑提斯 Isabel Desantis
       薇薇安·弗洛伦汀·尼克莱 Viviane Florentine Nicolai
       玛丽莎·雷吉娜 Marisa Regina
       劳拉·卡玛萨 Laura Camassa
       辛西娅·范托兹 Cinzia Fantauzzi
       蒂兹阿诺·法拉克希 Tiziano Ferracci
◎简  介
    塞西莉亚(西德妮·斯威尼 饰)是一个非常虔诚的修女,她来到意大利乡间修道院开始新生活,却在这个几乎全是女人的地方意外怀孕,原来这里隐藏着黑暗和可怕的秘密。##### MediaInfo ######
General
Unique ID                                : 225912269762381069640331933558720356865 (0xA9F51EDA012B347D1A4DAE1008AEE201)
Complete name                            : Immaculate.2024.1080p.BluRay.Remux.AVC.DTS-HD.MA.5.1-SONYHD.mkv
Duration                                 : 1 h 28 min
Overall bit rate mode                    : Variable
Overall bit rate                         : 28.3 Mb/s
Video
ID                                       : 1
Format                                   : AVC
Format/Info                              : Advanced Video Codec
Format profile                           : [email protected]
Format settings                          : CABAC / 4 Ref Frames
Format settings, CABAC                   : Yes
Format settings, Reference frames        : 4 frames
Codec ID                                 : V_MPEG4/ISO/AVC
Duration                                 : 1 h 28 min
Bit rate mode                            : Variable
Bit rate                                 : 24.7 Mb/s
Maximum bit rate                         : 32.0 Mb/s
Width                                    : 1 920 pixels
Height                                   : 1 080 pixels
Display aspect ratio                     : 16:9
Frame rate mode                          : Constant
Frame rate                               : 23.976 (24000/1001) FPS
Color space                              : YUV
Chroma subsampling                       : 4:2:0
Bit depth                                : 8 bits
Scan type                                : Progressive
Bits/(Pixel*Frame)                       : 0.497
Stream size                              : 15.3 GiB (87%)
Title                                    : Immaculate.2024.1080p.BluRay.AVC.DTS-HD.MA.5.1-DIY@Audies
Language                                 : English
Default                                  : Yes
Forced                                   : No
Audio
ID                                       : 2
ID in the original source medium         : 4352 (0x1100)
Format                                   : DTS XLL
Format/Info                              : Digital Theater Systems
Commercial name                          : DTS-HD Master Audio
Codec ID                                 : A_DTS
Duration                                 : 1 h 28 min
Bit rate mode                            : Variable
Bit rate                                 : 3 577 kb/s
Channel(s)                               : 6 channels
Channel layout                           : C L R Ls Rs LFE
Sampling rate                            : 48.0 kHz
Frame rate                               : 93.750 FPS (512 SPF)
Bit depth                                : 24 bits
Compression mode                         : Lossless
Stream size                              : 2.22 GiB (13%)
Title                                    : DTS-HD.MA.5.1
Language                                 : English
Default                                  : Yes
Forced                                   : No
Original source medium                   : Blu-ray
Text #1
ID                                       : 3
ID in the original source medium         : 4611 (0x1203)
Format                                   : PGS
Muxing mode                              : zlib
Codec ID                                 : S_HDMV/PGS
Codec ID/Info                            : Picture based subtitle format used on BDs/HD-DVDs
Duration                                 : 1 h 23 min
Bit rate                                 : 26.2 kb/s
Frame rate                               : 0.272 FPS
Count of elements                        : 1354
Stream size                              : 15.5 MiB (0%)
Title                                    : chs&eng
Language                                 : Chinese
Default                                  : Yes
Forced                                   : No
Original source medium                   : Blu-ray
Text #2
ID                                       : 4
ID in the original source medium         : 4612 (0x1204)
Format                                   : PGS
Muxing mode                              : zlib
Codec ID                                 : S_HDMV/PGS
Codec ID/Info                            : Picture based subtitle format used on BDs/HD-DVDs
Duration                                 : 1 h 23 min
Bit rate                                 : 26.2 kb/s
Frame rate                               : 0.272 FPS
Count of elements                        : 1354
Stream size                              : 15.6 MiB (0%)
Title                                    : cht&eng
Language                                 : Chinese
Default                                  : No
Forced                                   : No
Original source medium                   : Blu-ray
Text #3
ID                                       : 5
ID in the original source medium         : 4613 (0x1205)
Format                                   : PGS
Muxing mode                              : zlib
Codec ID                                 : S_HDMV/PGS
Codec ID/Info                            : Picture based subtitle format used on BDs/HD-DVDs
Duration                                 : 1 h 23 min
Bit rate                                 : 16.0 kb/s
Frame rate                               : 0.272 FPS
Count of elements                        : 1354
Stream size                              : 9.50 MiB (0%)
Title                                    : chs
Language                                 : Chinese
Default                                  : No
Forced                                   : No
Original source medium                   : Blu-ray
Text #4
ID                                       : 6
ID in the original source medium         : 4614 (0x1206)
Format                                   : PGS
Muxing mode                              : zlib
Codec ID                                 : S_HDMV/PGS
Codec ID/Info                            : Picture based subtitle format used on BDs/HD-DVDs
Duration                                 : 1 h 23 min
Bit rate                                 : 16.1 kb/s
Frame rate                               : 0.272 FPS
Count of elements                        : 1354
Stream size                              : 9.56 MiB (0%)
Title                                    : cht
Language                                 : Chinese
Default                                  : No
Forced                                   : No
Original source medium                   : Blu-ray
Text #5
ID                                       : 7
ID in the original source medium         : 4609 (0x1201)
Format                                   : PGS
Muxing mode                              : zlib
Codec ID                                 : S_HDMV/PGS
Codec ID/Info                            : Picture based subtitle format used on BDs/HD-DVDs
Duration                                 : 1 h 23 min
Bit rate                                 : 14.5 kb/s
Frame rate                               : 0.343 FPS
Count of elements                        : 1716
Stream size                              : 8.66 MiB (0%)
Title                                    : eng
Language                                 : English
Default                                  : No
Forced                                   : No
Original source medium                   : Blu-ray
Menu
00:00:00.000                             : en:Chapter 01
00:13:15.461                             : en:Chapter 02
00:25:04.336                             : en:Chapter 03
00:38:37.148                             : en:Chapter 04
00:44:08.354                             : en:Chapter 05
00:56:12.535                             : en:Chapter 06
01:08:09.627                             : en:Chapter 07
01:20:28.156                             : en:Chapter 08
部分资源为软字幕,移动端推荐播放器:MxPlayer,nPlayer,infuse ,其他播放器请自行尝试。
部分资源为软字幕,电脑端推荐播放器:PotPlayer,完美解码,KMPLAYER,其他播放器请自行尝试。
下载端推荐纯BT下载软件:qBittorrent,Bitcomet,uTorrent ,其他下载软件请自行尝试。不支持吸血迅雷。






~~~~~~~~~~~~~~~~~~~~~~~~~~~~~~~~~~~~~~~~~
[2024][欧美][恐怖][BD-1080P]无瑕修女[简繁英字幕].Immaculate.2024.1080p.BluRay.Remux.AVC.DTS-HD.MA.5.1- 17.60GB

【文件列表】:


Immaculate.2024.1080p.BluRay.Remux.AVC.DTS-HD.MA.5.1-SONYHD.



【下载地址列表】:


游客
文件下载链接就在这里,在您回复评论成功后才能显示。
请勿回复无意义的灌水内容。


下拉页面到最底部回复或者【点击此处快捷回复】,回复后返回此处即可查看下载链接。
如您没注册本站会员,可以点击注册本站,注册后即可回复下载。



软字幕无法在截图上展现,HDR版本/杜比视界版本截图会出现颜色异常,请使用支持的设备播放!






[img][/img]






[img][/img]

(HDR版本/杜比视界版本,截图会出现颜色异常,请使用支持的设备播放)

小贴士:【影视自媒体解说文案请移步:夏至文案解说网 www.xiazhi.vip

上一篇:[更 早][韩国][剧情][WEB-4K]绿鱼[中文字幕].Green.Fish.1997.2160p.MyVideo.WEB-DL.AAC.2.0.H.265- 12.02GB
下一篇:[更 早][日本][剧情][BD-1080P]无人知晓[国日多音轨/中文字幕].Nobody.Knows.2004.GBR.V1.BluRay.1080p.AAC2.0.x264- 4.27G
回复

使用道具 举报

您需要登录后才可以回帖 登录 | 立即注册

本版积分规则

Archiver|手机版|小众纪录片影视聚合

GMT+8, 2024-7-16 23:09 , Processed in 0.127121 second(s), 11 queries , Gzip On, Redis On.

Powered by 小众纪录片影视聚合 @2010-2023

Copyright © 2010-2024, https://www.xzjlp.com/.


免责说明:本站所有内容链接、图文介绍等均来自于互联网网友分享,本站仅支持web页面展示和文字介绍,绝不提供在线观看和存储服务,也不参与录制、上传、压片。若本站收录内容无意侵犯贵司版权,请发邮件到【a885185#163.com】联系本站,我们将在第一时间删除侵权内容。谢谢!

快速回复 返回顶部 返回列表