小众纪录片影视聚合

 找回密码
 立即注册
查看: 15|回复: 0

[蓝光电影] [更 早][日本][剧情][BD-1080P]最后的摩托英雄[中文字幕].Yogoreta.eiyu.1982.1080p.BluRay.Remux.AVC.DTS-HD.MA.5.1-ParkHD 29.

[复制链接]

116万

主题

116万

帖子

116万

积分

超级版主

Rank: 8Rank: 8

积分
1167997
发表于 2024-7-9 21:55:49 | 显示全部楼层 |阅读模式


[更 早][日本][剧情][BD-1080P]最后的摩托英雄[中文字幕].Yogoreta.eiyu.1982.1080p.BluRay.Remux.AVC.DTS-HD.MA.5.1-ParkHD 29.

完整标题:最后的摩托英雄[中文字幕].Yogoreta.eiyu.1982.1080p.BluRay.Remux.AVC.DTS-HD.MA.5.1-ParkHD 29.39GB
◎标  题 最后的摩托英雄
◎译  名 垃圾英雄
◎片  名 汚れた英雄
◎年  代 1982
◎产  地 日本
◎类  别 剧情 / 爱情
◎语  言 日语
◎上映日期 1982-12-18(日本)
◎IMDb评分 6.2/10 (38人评价)
◎IMDb链接 https://www.imdb.com/title/tt0165232/
◎豆瓣链接 https://movie.douban.com/subject/2222701/
◎片  长 112分钟
◎导  演 角川春树 Haruki Kadokawa
◎编  剧 大薮春彦 Haruhiko Ohyabu
◎演  员 草刈正雄 Masao Kusakari
       木之实奈奈 Nana Kinomi
       浅野温子 Atsuko Asano
       胜野洋 Hiroshi Katsuno
       黑部进 Susumu Kurobe
       草薙幸二郎 Kôjirô Kusanagi
       丽贝卡·霍尔顿 Rebecca Holden
       朝加真由美 Mayumi Asaka
       林温 Yutaka Hayashi
       奥田瑛二 Eiji Okuda
       中岛裕 Yutaka Nakajima
       伊武雅刀 Masatô Ibu
◎简  介
    0.1秒のエクスタシー。大藪春彦のベストセラー小説を、草刈正雄主演、角川春樹初監督により映画化した本格的レーシング・アクション。世界最速を目指す二輪レーサー・北島が、ライバルと0.1秒を賭けて闘う姿を描く。豪華なセット、スタイリッシュな映像、迫力のレースシーンが見どころ。SUGOサーキットで国際A級500cc決勝(全日本選手権ロードレース第8戦)が開催。バイクレーサー北野晶夫と大木圭史の宿命の対決は、ゴール直前で北野が大木に追い抜かれて終了、勝負は最終戦にもつれ込んだ。北野は、その美貌とセックステクニックを駆使し、複数のパトロンからチーム維持のための資金を得ていた。10億ドルの遺産を引き継ぎ国際的なコングロマリットのオーナーになったクリスティーン・アダムスが来日すると、北野はさっそく彼女に接近し、見事に資金を調達するのだった。そして北野はついに最終戦を迎えるのだが・・・。##### MediaInfo ######
General
Unique ID                                : 24807267967976098756559361055425873008 (0x12A9B4BDD82D924D802609910668C470)
Complete name                            : Yogoreta.eiyu.1982.1080p.BluRay.Remux.AVC.DTS-HD.MA.5.1-ParkHD.mkv
Duration                                 : 1 h 52 min
Overall bit rate mode                    : Variable
Overall bit rate                         : 37.5 Mb/s
Video
ID                                       : 1
ID in the original source medium         : 4113 (0x1011)
Format                                   : AVC
Format/Info                              : Advanced Video Codec
Format profile                           : [email protected]
Format settings                          : CABAC / 4 Ref Frames
Format settings, CABAC                   : Yes
Format settings, Reference frames        : 4 frames
Codec ID                                 : V_MPEG4/ISO/AVC
Duration                                 : 1 h 52 min
Bit rate mode                            : Variable
Bit rate                                 : 32.8 Mb/s
Maximum bit rate                         : 34.0 Mb/s
Width                                    : 1 920 pixels
Height                                   : 1 080 pixels
Display aspect ratio                     : 16:9
Frame rate mode                          : Constant
Frame rate                               : 23.976 (24000/1001) FPS
Color space                              : YUV
Chroma subsampling                       : 4:2:0
Bit depth                                : 8 bits
Scan type                                : Progressive
Bits/(Pixel*Frame)                       : 0.660
Stream size                              : 25.8 GiB (88%)
Default                                  : Yes
Forced                                   : No
Original source medium                   : Blu-ray
Audio
ID                                       : 2
ID in the original source medium         : 4353 (0x1101)
Format                                   : DTS XLL
Format/Info                              : Digital Theater Systems
Commercial name                          : DTS-HD Master Audio
Codec ID                                 : A_DTS
Duration                                 : 1 h 52 min
Bit rate mode                            : Variable
Bit rate                                 : 4 572 kb/s
Channel(s)                               : 6 channels
Channel layout                           : C L R Ls Rs LFE
Sampling rate                            : 48.0 kHz
Frame rate                               : 93.750 FPS (512 SPF)
Bit depth                                : 24 bits
Compression mode                         : Lossless
Stream size                              : 3.59 GiB (12%)
Language                                 : Japanese
Default                                  : Yes
Forced                                   : No
Original source medium                   : Blu-ray
Text #1
ID                                       : 3
ID in the original source medium         : 4608 (0x1200)
Format                                   : PGS
Muxing mode                              : zlib
Codec ID                                 : S_HDMV/PGS
Codec ID/Info                            : Picture based subtitle format used on BDs/HD-DVDs
Duration                                 : 1 h 51 min
Bit rate                                 : 99.8 kb/s
Frame rate                               : 1.507 FPS
Count of elements                        : 10053
Stream size                              : 79.4 MiB (0%)
Language                                 : Japanese
Default                                  : Yes
Forced                                   : No
Original source medium                   : Blu-ray
Text #2
ID                                       : 4
ID in the original source medium         : 4609 (0x1201)
Format                                   : PGS
Muxing mode                              : zlib
Codec ID                                 : S_HDMV/PGS
Codec ID/Info                            : Picture based subtitle format used on BDs/HD-DVDs
Duration                                 : 1 h 50 min
Bit rate                                 : 8 931 b/s
Frame rate                               : 0.144 FPS
Count of elements                        : 951
Stream size                              : 7.03 MiB (0%)
Language                                 : Chinese
Default                                  : Yes
Forced                                   : No
Original source medium                   : Blu-ray
Text #3
ID                                       : 5
ID in the original source medium         : 4610 (0x1202)
Format                                   : PGS
Muxing mode                              : zlib
Codec ID                                 : S_HDMV/PGS
Codec ID/Info                            : Picture based subtitle format used on BDs/HD-DVDs
Duration                                 : 1 h 50 min
Bit rate                                 : 9 105 b/s
Frame rate                               : 0.144 FPS
Count of elements                        : 951
Stream size                              : 7.16 MiB (0%)
Language                                 : Chinese
Default                                  : Yes
Forced                                   : No
Original source medium                   : Blu-ray
Menu
00:00:00.000                             : en:Chapter 01
00:07:13.433                             : en:Chapter 02
00:16:17.017                             : en:Chapter 03
00:19:21.076                             : en:Chapter 04
00:29:45.658                             : en:Chapter 05
00:38:17.128                             : en:Chapter 06
00:47:40.023                             : en:Chapter 07
00:57:13.346                             : en:Chapter 08
01:10:20.174                             : en:Chapter 09
01:19:08.702                             : en:Chapter 10
01:23:19.452                             : en:Chapter 11
01:29:51.844                             : en:Chapter 12
01:37:34.431                             : en:Chapter 13
01:40:31.483                             : en:Chapter 14
01:48:04.227                             : en:Chapter 15
部分资源为软字幕,移动端推荐播放器:MxPlayer,nPlayer,infuse ,其他播放器请自行尝试。
部分资源为软字幕,电脑端推荐播放器:PotPlayer,完美解码,KMPLAYER,其他播放器请自行尝试。
下载端推荐纯BT下载软件:qBittorrent,Bitcomet,uTorrent ,其他下载软件请自行尝试。不支持吸血迅雷。






~~~~~~~~~~~~~~~~~~~~~~~~~~~~~~~~~~~~~~~~~
[更 早][日本][剧情][BD-1080P]最后的摩托英雄[中文字幕].Yogoreta.eiyu.1982.1080p.BluRay.Remux.AVC.DTS-HD.MA.5.1-ParkHD 29.

【文件列表】:


Yogoreta.eiyu.1982.1080p.BluRay.Remux.AVC.DTS-HD.MA.5.1-ParkHD.



【下载地址列表】:


游客
文件下载链接就在这里,在您回复评论成功后才能显示。
请勿回复无意义的灌水内容。


下拉页面到最底部回复或者【点击此处快捷回复】,回复后返回此处即可查看下载链接。
如您没注册本站会员,可以点击注册本站,注册后即可回复下载。



软字幕无法在截图上展现,HDR版本/杜比视界版本截图会出现颜色异常,请使用支持的设备播放!






[img][/img]






[img][/img]

(HDR版本/杜比视界版本,截图会出现颜色异常,请使用支持的设备播放)

小贴士:【影视自媒体解说文案请移步:夏至文案解说网 www.xiazhi.vip

上一篇:[2024][欧美][剧情][BD-1080P]盟军敢死队[中文字幕/特效字幕].2024.BluRay.1080p.TrueHD7.1.x265.10bit- 8.11GB
下一篇:[更 早][其它][剧情][BD-1080P]生生长流[简繁英字幕].And.Life.Goes.on.1992.CC.V2.1080p.BluRay.x264.FLAC.1.0- 10.07G
回复

使用道具 举报

您需要登录后才可以回帖 登录 | 立即注册

本版积分规则

Archiver|手机版|小众纪录片影视聚合

GMT+8, 2024-7-24 22:47 , Processed in 0.149483 second(s), 12 queries , Gzip On, Redis On.

Powered by 小众纪录片影视聚合 @2010-2023

Copyright © 2010-2024, https://www.xzjlp.com/.


免责说明:本站所有内容链接、图文介绍等均来自于互联网网友分享,本站仅支持web页面展示和文字介绍,绝不提供在线观看和存储服务,也不参与录制、上传、压片。若本站收录内容无意侵犯贵司版权,请发邮件到【a885185#163.com】联系本站,我们将在第一时间删除侵权内容。谢谢!

快速回复 返回顶部 返回列表