小众纪录片影视聚合

 找回密码
 立即注册
查看: 14|回复: 0

[蓝光电影] [更 早][欧美][剧情][BD-1080P]替天行道[简繁英字幕].Frailty.2001.1080p.BluRay.x264.DTS- 12.74GB

[复制链接]

113万

主题

113万

帖子

113万

积分

超级版主

Rank: 8Rank: 8

积分
1134616
发表于 2024-7-9 21:56:14 | 显示全部楼层 |阅读模式


[更 早][欧美][剧情][BD-1080P]替天行道[简繁英字幕].Frailty.2001.1080p.BluRay.x264.DTS- 12.74GB

完整标题:替天行道[简繁英字幕].Frailty.2001.1080p.BluRay.x264.DTS-SONYHD 12.74GB
◎标  题 替天行道
◎译  名 神谕之谋杀 / 上帝之手
◎片  名 Frailty
◎年  代 2001
◎产  地 美国 / 德国 / 意大利
◎类  别 剧情 / 惊悚 / 犯罪
◎语  言 英语
◎上映日期 2001-11-17
◎IMDb评分 7.2/10 (86017人评价)
◎IMDb链接 https://www.imdb.com/title/tt0264616/
◎豆瓣评分 6.8/10 (1762人评价)
◎豆瓣链接 https://movie.douban.com/subject/1303141/
◎片  长 100 分钟
◎导  演 比尔·帕克斯顿 Bill Paxton
◎编  剧 布伦特·汉利 Brent Hanley
◎演  员 比尔·帕克斯顿 Bill Paxton
       马修·麦康纳 Matthew McConaughey
       鲍沃斯·布斯 Powers Boothe
       杰瑞米·桑普特 Jeremy Sumpter
       米西·克里德 Missy Crider
       马特·欧莱瑞 Matt O'Leary
       德雷克·切特伍德 Derk Cheetwood
       格雷格·塞拉诺 Greg Serano
       Chelsea Butler Chelsea Butler
       戴夫·博沃 Dave Power
       兰斯·E·尼克尔斯 Lance E. Nichols
       Blake King Blake King
       Edgar L. Davis Edgar L. Davis
       丽贝卡·蒂尔尼 Rebecca Tilney
◎简  介
    韦斯利(鲍沃斯·布斯 Powers Boothe 饰)是一名探员,最近,他正在调查一宗名为“上帝之手”的恶性连环杀人案件,一个名叫芬顿(马修·麦康纳 Matthew McConaughey 饰)的神秘男人找到了韦斯利,并告诉他自己知道整个案件的来龙去脉,让韦斯利感到震惊的是,如果事实真的如芬顿所言,那么凶手不是别人,正是芬顿那已经自杀的弟弟亚当(杰瑞米·桑普特 Jeremy Sumpter 饰)。韦斯利跟随芬顿来到了亚当的墓前,在那里,芬顿向韦斯利讲述了他和亚当的过往。                                    原来,一切事件起源于兄弟两人的父亲梅克斯(比尔·帕克斯顿 Bill Paxton 饰),他告诉两兄弟自己遇见了天使,这位天使给了他一份名单,名单上记载的都是化身为人类的恶魔,而梅克斯要做的,就是将他们一一杀死。对于父亲的话,亚当信以为真,而芬顿却察觉到了其中的疯狂,两人的命运自此走上了截然不同的道路。##### MediaInfo ######
General
Unique ID                                : 21613511660016952966866978744631205913 (0x10429C65F852D445720920089BE6A019)
Complete name                            : Frailty.2001.1080p.BluRay.x264.DTS-SONYHD.mkv
Duration                                 : 1 h 39 min
Overall bit rate                         : 18.3 Mb/s
Video
ID                                       : 1
Format                                   : AVC
Format/Info                              : Advanced Video Codec
Format profile                           : [email protected]
Format settings                          : CABAC / 4 Ref Frames
Format settings, CABAC                   : Yes
Format settings, Reference frames        : 4 frames
Codec ID                                 : V_MPEG4/ISO/AVC
Duration                                 : 1 h 39 min
Bit rate                                 : 16.7 Mb/s
Width                                    : 1 920 pixels
Height                                   : 1 080 pixels
Display aspect ratio                     : 16:9
Frame rate mode                          : Constant
Frame rate                               : 23.976 (24000/1001) FPS
Color space                              : YUV
Chroma subsampling                       : 4:2:0
Bit depth                                : 8 bits
Scan type                                : Progressive
Bits/(Pixel*Frame)                       : 0.337
Stream size                              : 11.7 GiB (92%)
Writing library                          : x264 core 164 r3186+62M 5e8a29f t_mod_New [(8 & 10)-bit@all X86_64]
Encoding settings                        : cabac=1 / ref=4 / deblock=1:-3:-3 / analyse=0x3:0x113 / me=umh / subme=11 / psy=1 / fade_compensate=0.00 / psy_rd=1.00:0.00 / mixed_ref=1 / me_range=48 / chroma_me=1 / trellis=2 / 8x8dct=1 / cqm=0 / deadzone=21,11 / fast_pskip=0 / chroma_qp_offset=-3 / threads=34 / lookahead_threads=8 / sliced_threads=0 / nr=0 / decimate=0 / interlaced=0 / bluray_compat=0 / constrained_intra=0 / fgo=0 / bframes=11 / b_pyramid=2 / b_adapt=2 / b_bias=0 / direct=3 / weightb=1 / open_gop=0 / weightp=2 / keyint=240 / keyint_min=1 / scenecut=40 / intra_refresh=0 / rc_lookahead=72 / rc=crf / mbtree=0 / crf=19.0000 / qcomp=0.70 / qpmin=0:0:0 / qpmax=69:69:69 / qpstep=4 / vbv_maxrate=62500 / vbv_bufsize=78125 / crf_max=0.0 / nal_hrd=none / filler=0 / ip_ratio=1.40 / pb_ratio=1.30 / aq=3:0.90 / aq-sensitivity=10.00 / aq-factor=1.00:1.00:1.00:1.00 / aq2=0 / aq3=0
Language                                 : English
Default                                  : Yes
Forced                                   : No
Audio
ID                                       : 2
ID in the original source medium         : 4353 (0x1101)
Format                                   : DTS
Format/Info                              : Digital Theater Systems
Codec ID                                 : A_DTS
Duration                                 : 1 h 39 min
Bit rate mode                            : Constant
Bit rate                                 : 1 509 kb/s
Channel(s)                               : 6 channels
Channel layout                           : C L R Ls Rs LFE
Sampling rate                            : 48.0 kHz
Frame rate                               : 93.750 FPS (512 SPF)
Bit depth                                : 16 bits
Compression mode                         : Lossy
Stream size                              : 1.05 GiB (8%)
Language                                 : English
Default                                  : Yes
Forced                                   : No
Original source medium                   : Blu-ray
Text #1
ID                                       : 3
ID in the original source medium         : 4611 (0x1203)
Format                                   : PGS
Muxing mode                              : zlib
Codec ID                                 : S_HDMV/PGS
Codec ID/Info                            : Picture based subtitle format used on BDs/HD-DVDs
Duration                                 : 1 h 34 min
Bit rate                                 : 24.4 kb/s
Frame rate                               : 0.371 FPS
Count of elements                        : 2114
Stream size                              : 16.6 MiB (0%)
Title                                    : chs
Language                                 : Chinese
Default                                  : Yes
Forced                                   : No
Original source medium                   : Blu-ray
Text #2
ID                                       : 4
ID in the original source medium         : 4612 (0x1204)
Format                                   : PGS
Muxing mode                              : zlib
Codec ID                                 : S_HDMV/PGS
Codec ID/Info                            : Picture based subtitle format used on BDs/HD-DVDs
Duration                                 : 1 h 34 min
Bit rate                                 : 24.6 kb/s
Frame rate                               : 0.371 FPS
Count of elements                        : 2114
Stream size                              : 16.7 MiB (0%)
Title                                    : cht
Language                                 : Chinese
Default                                  : No
Forced                                   : No
Original source medium                   : Blu-ray
Text #3
ID                                       : 5
ID in the original source medium         : 4609 (0x1201)
Format                                   : PGS
Muxing mode                              : zlib
Codec ID                                 : S_HDMV/PGS
Codec ID/Info                            : Picture based subtitle format used on BDs/HD-DVDs
Duration                                 : 1 h 31 min
Bit rate                                 : 28.5 kb/s
Frame rate                               : 0.337 FPS
Count of elements                        : 1850
Stream size                              : 18.6 MiB (0%)
Language                                 : English
Default                                  : No
Forced                                   : No
Original source medium                   : Blu-ray
Menu
00:00:00.000                             : en:第 01 章
00:03:44.724                             : en:第 02 章
00:09:30.069                             : en:第 03 章
00:12:29.248                             : en:第 04 章
00:19:36.884                             : en:第 05 章
00:26:21.871                             : en:第 06 章
00:35:55.736                             : en:第 07 章
00:42:48.274                             : en:第 08 章
00:49:03.482                             : en:第 09 章
00:56:43.650                             : en:第 10 章
01:03:50.201                             : en:第 11 章
01:12:42.941                             : en:第 12 章
01:18:58.400                             : en:第 13 章
01:25:32.544                             : en:第 14 章
01:30:35.847                             : en:第 15 章
01:35:43.696                             : en:第 16 章
部分资源为软字幕,移动端推荐播放器:MxPlayer,nPlayer,infuse ,其他播放器请自行尝试。
部分资源为软字幕,电脑端推荐播放器:PotPlayer,完美解码,KMPLAYER,其他播放器请自行尝试。
下载端推荐纯BT下载软件:qBittorrent,Bitcomet,uTorrent ,其他下载软件请自行尝试。不支持吸血迅雷。






~~~~~~~~~~~~~~~~~~~~~~~~~~~~~~~~~~~~~~~~~
[更 早][欧美][剧情][BD-1080P]替天行道[简繁英字幕].Frailty.2001.1080p.BluRay.x264.DTS- 12.74GB

【文件列表】:


Frailty.2001.1080p.BluRay.x264.DTS-SONYHD.



【下载地址列表】:


游客
文件下载链接就在这里,在您回复评论成功后才能显示。
请勿回复无意义的灌水内容。


下拉页面到最底部回复或者【点击此处快捷回复】,回复后返回此处即可查看下载链接。
如您没注册本站会员,可以点击注册本站,注册后即可回复下载。



软字幕无法在截图上展现,HDR版本/杜比视界版本截图会出现颜色异常,请使用支持的设备播放!






[img][/img]






[img][/img]

(HDR版本/杜比视界版本,截图会出现颜色异常,请使用支持的设备播放)

小贴士:【影视自媒体解说文案请移步:夏至文案解说网 www.xiazhi.vip

上一篇:[更 早][欧美][剧情][BD-1080P]替天行道[简繁英字幕].Frailty.2001.1080p.BluRay.Remux.AVC.DTS-HD.MA.5.1- 26.56GB
下一篇:动漫《东京24区》BD高清--720P/1080P高清BT种子磁力迅雷下载
回复

使用道具 举报

您需要登录后才可以回帖 登录 | 立即注册

本版积分规则

Archiver|手机版|小众纪录片影视聚合

GMT+8, 2024-7-22 06:27 , Processed in 0.095253 second(s), 13 queries , Gzip On, Redis On.

Powered by 小众纪录片影视聚合 @2010-2023

Copyright © 2010-2024, https://www.xzjlp.com/.


免责说明:本站所有内容链接、图文介绍等均来自于互联网网友分享,本站仅支持web页面展示和文字介绍,绝不提供在线观看和存储服务,也不参与录制、上传、压片。若本站收录内容无意侵犯贵司版权,请发邮件到【a885185#163.com】联系本站,我们将在第一时间删除侵权内容。谢谢!

快速回复 返回顶部 返回列表