小众纪录片影视聚合

 找回密码
 立即注册
查看: 3|回复: 0

[蓝光电影] [2019][韩国][剧情][BD-1080P]寄生虫[中文字幕].Parasite.2019.BluRay.1080p.AAC.x264- 3.45GB

[复制链接]

112万

主题

112万

帖子

112万

积分

超级版主

Rank: 8Rank: 8

积分
1128817
发表于 7 天前 | 显示全部楼层 |阅读模式


[2019][韩国][剧情][BD-1080P]寄生虫[中文字幕].Parasite.2019.BluRay.1080p.AAC.x264- 3.45GB

完整标题:寄生虫[中文字幕].Parasite.2019.BluRay.1080p.AAC.x264-DreamHD 3.45GB
◎标  题 寄生虫
◎译  名 寄生上流(台) / 上流寄生族(港) / 패러사이트 / Parasite / Gisaengchung
◎片  名 기생충
◎年  代 2019
◎产  地 韩国
◎类  别 剧情
◎语  言 韩语 / 英语
◎上映日期 2019-05-21(戛纳电影节) / 2019-05-30(韩国)
◎IMDb评分 8.5/10 (900266人评价)
◎IMDb链接 https://www.imdb.com/title/tt6751668/
◎豆瓣评分 8.8/10 (1389958人评价)
◎豆瓣链接 https://movie.douban.com/subject/27010768/
◎片  长 132分钟
◎导  演 奉俊昊 Joon-ho Bong
◎编  剧 奉俊昊 Joon-ho Bong
       韩珍元 Jin-won Han
◎演  员 宋康昊 Kang-ho Song
       李善均 Seon-gyun Lee
       曹汝贞 Yeo-Jeong Jo
       崔宇植 Choi Woo-shik
       朴素丹 So-dam Park
       李姃垠 Jung-eun Lee
       张慧珍 Hye-jin Jang
       郑知晓 Ji-So Jeong
       朴明勋 Myeong-hoon Park
       朴叙俊 Seo-Joon Park
       朴根禄 Keun-rok Park
       郑贤俊 Hyun-joon Jung
       朴孝新 Pak Hyo-Shin
       安德烈亚斯·弗龙克 Andreas Fronk
       郑益汉 Ik-han Jung
       李东勇 Lee Dong-yong
       李柱亨 Ju-hyeoung Lee
       郑伊书 Yi-Seo Jung
       金河彦 Ha-Eon Kim
       朴在琓 Jae-wan Park
       金圭白 Kim Kyu Baek
       李璐雅 Lee Lu-a
       金永洲  Kim Young Jo
       李相京 Lee Sang-kyung
◎简  介
    基宇(崔宇植 饰)出生在一个贫穷的家庭之中,和妹妹基婷(朴素丹 饰)以及父母在狭窄的地下室里过着相依为命的日子。一天,基宇的同学上门拜访,他告诉基宇,自己在一个有钱人家里给他们的女儿做家教,太太是一个头脑简单出手又阔绰的女人,因为自己要出国留学,所以将家教的职位暂时转交给基宇。                                    就这样,基宇来到了朴社长(李善均 饰)家中,并且见到了他的太太(赵汝贞 饰),没过多久,基宇的妹妹和父母也如同寄生虫一般的进入了朴社长家里工作。然而,他们的野心并没有止步于此,基宇更是和大小姐坠入了爱河。随着时间的推移,朴社长家里隐藏的秘密渐渐浮出了水面。
点击图片可查看大图
软字幕无法在截图上展现,HDR版本/杜比视界版本截图会出现颜色异常,请使用支持的设备播放!
##### MediaInfo ######
General
Complete name                            : Parasite.2019.BluRay.1080p.AAC.x264-DreamHD.mp4
Duration                                 : 2 h 12 min
Overall bit rate mode                    : Variable
Overall bit rate                         : 3 736 kb/s
Video
ID                                       : 1
Format                                   : AVC
Format/Info                              : Advanced Video Codec
Format profile                           : [email protected]
Format settings                          : CABAC / 4 Ref Frames
Format settings, CABAC                   : Yes
Format settings, Reference frames        : 4 frames
Codec ID                                 : avc1
Codec ID/Info                            : Advanced Video Coding
Duration                                 : 1 h 57 min
Bit rate                                 : 4 000 kb/s
Maximum bit rate                         : 28.6 Mb/s
Width                                    : 1 920 pixels
Height                                   : 1 080 pixels
Display aspect ratio                     : 16:9
Frame rate mode                          : Constant
Frame rate                               : 23.976 (24000/1001) FPS
Color space                              : YUV
Chroma subsampling                       : 4:2:0
Bit depth                                : 8 bits
Scan type                                : Progressive
Bits/(Pixel*Frame)                       : 0.080
Stream size                              : 3.26 GiB (95%)
Writing library                          : x264 core 148 r2699+6+41 29a38aa Yuuki [8-bit@all X86_64][GCC 5.3.0]
Encoding settings                        : cabac=1 / ref=4 / deblock=1:-3:-3 / analyse=0x1:0x111 / me=umh / subme=10 / psy=1 / fade_compensate=0.00 / psy_rd=1.00:0.15 / mixed_ref=1 / me_range=64 / chroma_me=1 / trellis=2 / 8x8dct=0 / cqm=0 / deadzone=21,11 / fast_pskip=0 / chroma_qp_offset=-3 / threads=24 / lookahead_threads=4 / sliced_threads=0 / nr=0 / decimate=1 / interlaced=0 / bluray_compat=0 / constrained_intra=0 / fgo=0 / bframes=8 / b_pyramid=2 / b_adapt=2 / b_bias=0 / direct=3 / weightb=1 / open_gop=0 / weightp=2 / keyint=300 / keyint_min=24 / scenecut=40 / intra_refresh=0 / rc_lookahead=60 / rc=2pass / mbtree=1 / bitrate=4000 / ratetol=1.0 / qcomp=0.60 / qpmin=0:0:0 / qpmax=69:69:69 / qpstep=4 / cplxblur=20.0 / qblur=0.5 / ip_ratio=1.40 / aq=2:1.00
Encoded date                             : UTC 2019-12-07 05:03:33
Tagged date                              : UTC 2019-12-07 05:05:15
Codec configuration box                  : avcC
Audio
ID                                       : 2
Format                                   : AAC LC
Format/Info                              : Advanced Audio Codec Low Complexity
Codec ID                                 : mp4a-40-2
Duration                                 : 2 h 12 min
Bit rate mode                            : Variable
Bit rate                                 : 192 kb/s
Maximum bit rate                         : 201 kb/s
Channel(s)                               : 2 channels
Channel layout                           : L R
Sampling rate                            : 48.0 kHz
Frame rate                               : 46.875 FPS (1024 SPF)
Compression mode                         : Lossy
Stream size                              : 181 MiB (5%)
Language                                 : Korean
Encoded date                             : UTC 2019-12-07 05:00:13
Tagged date                              : UTC 2019-12-07 05:05:15
Menu
部分资源为软字幕,移动端推荐播放器:MxPlayer,nPlayer,infuse ,其他播放器请自行尝试。
部分资源为软字幕,电脑端推荐播放器:PotPlayer,完美解码,KMPLAYER,其他播放器请自行尝试。






~~~~~~~~~~~~~~~~~~~~~~~~~~~~~~~~~~~~~~~~~
[2019][韩国][剧情][BD-1080P]寄生虫[中文字幕].Parasite.2019.BluRay.1080p.AAC.x264- 3.45GB

【文件列表】:


Parasite.2019.BluRay.1080p.AAC.x264-DreamHD.



【下载地址列表】:


游客
文件下载链接就在这里,在您回复评论成功后才能显示。
请勿回复无意义的灌水内容。


下拉页面到最底部回复或者【点击此处快捷回复】,回复后返回此处即可查看下载链接。
如您没注册本站会员,可以点击注册本站,注册后即可回复下载。



软字幕无法在截图上展现,HDR版本/杜比视界版本截图会出现颜色异常,请使用支持的设备播放!






[img][/img]






[img][/img]

(HDR版本/杜比视界版本,截图会出现颜色异常,请使用支持的设备播放)

小贴士:【影视自媒体解说文案请移步:夏至文案解说网 www.xiazhi.vip

上一篇:[2019][日本][爱情][BD-1080P]平行世界·爱情故事[中文字幕].Parallel.World.Love.Story.2019.BluRay.1080p.TrueHD5.1.x264-Dream
下一篇:[更 早][其它][剧情][BD-1080P]德州巴黎[中英双语特效字幕].Paris.Texas.Remaster.2010.BluRay.1080p.DTS-HD.MA.5.1.x264-
回复

使用道具 举报

您需要登录后才可以回帖 登录 | 立即注册

本版积分规则

Archiver|手机版|小众纪录片影视聚合

GMT+8, 2024-7-16 22:42 , Processed in 0.392993 second(s), 13 queries , Gzip On, Redis On.

Powered by 小众纪录片影视聚合 @2010-2023

Copyright © 2010-2024, https://www.xzjlp.com/.


免责说明:本站所有内容链接、图文介绍等均来自于互联网网友分享,本站仅支持web页面展示和文字介绍,绝不提供在线观看和存储服务,也不参与录制、上传、压片。若本站收录内容无意侵犯贵司版权,请发邮件到【a885185#163.com】联系本站,我们将在第一时间删除侵权内容。谢谢!

快速回复 返回顶部 返回列表