小众纪录片影视聚合

 找回密码
 立即注册
查看: 5|回复: 0

[蓝光电影] [更 早][其它][剧情][BD-1080P]德州巴黎[中英双语特效字幕].Paris.Texas.Remaster.2010.BluRay.1080p.DTS-HD.MA.5.1.x264-

[复制链接]

113万

主题

113万

帖子

113万

积分

超级版主

Rank: 8Rank: 8

积分
1134692
发表于 2024-7-9 21:05:26 | 显示全部楼层 |阅读模式


[更 早][其它][剧情][BD-1080P]德州巴黎[中英双语特效字幕].Paris.Texas.Remaster.2010.BluRay.1080p.DTS-HD.MA.5.1.x264-

完整标题:德州巴黎[中英双语特效字幕].Paris.Texas.Remaster.2010.BluRay.1080p.DTS-HD.MA.5.1.x264-DreamHD 23.52GB
◎标  题 德州巴黎
◎译  名 巴黎,德州(台) / 德克萨斯州的巴黎 / 德克萨斯,巴黎
◎片  名 Paris, Texas
◎年  代 1984
◎产  地 西德 / 法国 / 英国 / 美国
◎类  别 剧情
◎语  言 英语 / 西班牙语
◎上映日期 1984-05-14(戛纳电影节) / 1984-09-14(法国)
◎IMDb评分 8.1/10 (112636人评价)
◎IMDb链接 https://www.imdb.com/title/tt0087884/
◎豆瓣评分 8.5/10 (66112人评价)
◎豆瓣链接 https://movie.douban.com/subject/1302061/
◎片  长 145分钟
◎导  演 维姆·文德斯 Wim Wenders
◎编  剧 L.M.基特·卡森 L.M. Kit Carson
       山姆·夏普德 Sam Shepard
◎演  员 哈利·戴恩·斯坦通 Harry Dean Stanton
       萨姆·贝瑞 Sam Berry
       伯恩哈德·维基 Bernhard Wicki
       迪恩·斯托克维尔 Dean Stockwell
       奥萝尔·克莱芒 Aurore Clément
       亨特·卡森 Hunter Carson
       维娃 Viva
       索科洛·瓦尔迪兹 Socorro Valdez
       娜塔莎·金斯基 Nastassja Kinski
       汤姆·法雷尔 Tom Farrell
       约翰·劳瑞 John Lurie
       童自荣 Zirong Tong
◎简  介
    查韦斯(哈利·戴恩·斯坦通 Harry Dean Stanton 饰)迷失在德州荒无人烟的沙漠中,因为身体虚弱而昏迷。医院联系了他的弟弟沃特(迪恩·斯托克维尔 Dean Stockwell 饰)来接他。出院的查韦斯一直沉默,直到看见“巴黎,德州”的牌子,才终于开口。                                    回 到洛杉矶弟弟家,查韦斯见到了儿子——亨特(亨特·卡森 Hunter Carson 饰演),弟弟弟妹其实是养父养母。但是亨特对突如其来的父亲并不接受。后来,查韦斯用很特别的方式收复了孩子的心。通过交流,查韦斯了解到孩子的生母——简(娜塔莎·金斯基 Nastassja Kinski 饰)的下落。于是,父子踏上了一条寻母之路……                                    本片获第37届戛纳电影节最佳影片金棕榈大奖。
点击图片可查看大图
软字幕无法在截图上展现,HDR版本/杜比视界版本截图会出现颜色异常,请使用支持的设备播放!
##### MediaInfo ######
General
Unique ID                                : 222921638475257851668911349044103716471 (0xA7B5255855C85F3BC58638E2F8019E77)
Complete name                            : Paris.Texas.Remaster.2010.BluRay.1080p.DTS-HD.MA.5.1.x264-DreamHD.mkv
Duration                                 : 2 h 25 min
Overall bit rate mode                    : Variable
Overall bit rate                         : 23.1 Mb/s
Video
ID                                       : 1
Format                                   : AVC
Format/Info                              : Advanced Video Codec
Format profile                           : [email protected]
Format settings                          : CABAC / 4 Ref Frames
Format settings, CABAC                   : Yes
Format settings, Reference frames        : 4 frames
Codec ID                                 : V_MPEG4/ISO/AVC
Duration                                 : 2 h 25 min
Bit rate                                 : 13.3 Mb/s
Width                                    : 1 792 pixels
Height                                   : 1 080 pixels
Display aspect ratio                     : 5:3
Frame rate mode                          : Constant
Frame rate                               : 24.000 FPS
Color space                              : YUV
Chroma subsampling                       : 4:2:0
Bit depth                                : 8 bits
Scan type                                : Progressive
Bits/(Pixel*Frame)                       : 0.285
Stream size                              : 13.5 GiB (57%)
Writing library                          : x264 core 160 r3011+44 ec1850e Yuuki [all-bit@all X86_64]
Encoding settings                        : cabac=1 / ref=4 / deblock=1:-3:-3 / analyse=0x3:0x133 / me=umh / subme=11 / psy=1 / psy_rd=1.00:0.00 / mixed_ref=1 / me_range=48 / chroma_me=1 / trellis=2 / 8x8dct=1 / cqm=0 / deadzone=21,11 / fast_pskip=0 / chroma_qp_offset=-2 / threads=34 / lookahead_threads=8 / sliced_threads=0 / nr=0 / decimate=0 / interlaced=0 / bluray_compat=0 / constrained_intra=0 / fgo=0 / bframes=12 / b_pyramid=2 / b_adapt=2 / b_bias=0 / direct=3 / weightb=1 / open_gop=0 / weightp=2 / keyint=250 / keyint_min=24 / scenecut=40 / intra_refresh=0 / rc=crf / mbtree=0 / crf=18.0000 / qcomp=0.70 / qpmin=0:0:0 / qpmax=69:69:69 / qpstep=4 / ip_ratio=1.30 / pb_ratio=1.20 / aq=3:0.80
Default                                  : Yes
Forced                                   : No
Color range                              : Limited
Color primaries                          : BT.709
Matrix coefficients                      : BT.709
Audio #1
ID                                       : 2
Format                                   : DTS XLL
Format/Info                              : Digital Theater Systems
Commercial name                          : DTS-HD Master Audio
Codec ID                                 : A_DTS
Duration                                 : 2 h 25 min
Bit rate mode                            : Variable
Bit rate                                 : 3 982 kb/s
Channel(s)                               : 6 channels
Channel layout                           : C L R Ls Rs LFE
Sampling rate                            : 48.0 kHz
Frame rate                               : 93.750 FPS (512 SPF)
Bit depth                                : 24 bits
Compression mode                         : Lossless
Stream size                              : 4.06 GiB (17%)
Language                                 : German
Default                                  : Yes
Forced                                   : No
Audio #2
ID                                       : 3
Format                                   : DTS XLL
Format/Info                              : Digital Theater Systems
Commercial name                          : DTS-HD Master Audio
Codec ID                                 : A_DTS
Duration                                 : 2 h 25 min
Bit rate mode                            : Variable
Bit rate                                 : 3 726 kb/s
Channel(s)                               : 6 channels
Channel layout                           : C L R Ls Rs LFE
Sampling rate                            : 48.0 kHz
Frame rate                               : 93.750 FPS (512 SPF)
Bit depth                                : 24 bits
Compression mode                         : Lossless
Stream size                              : 3.80 GiB (16%)
Language                                 : English
Default                                  : No
Forced                                   : No
Audio #3
ID                                       : 4
Format                                   : DTS XLL
Format/Info                              : Digital Theater Systems
Commercial name                          : DTS-HD Master Audio
Codec ID                                 : A_DTS
Duration                                 : 2 h 25 min
Bit rate mode                            : Variable
Bit rate                                 : 2 045 kb/s
Channel(s)                               : 2 channels
Channel layout                           : L R
Sampling rate                            : 48.0 kHz
Frame rate                               : 93.750 FPS (512 SPF)
Bit depth                                : 24 bits
Compression mode                         : Lossless
Stream size                              : 2.08 GiB (9%)
Language                                 : German
Default                                  : No
Forced                                   : No
Text
ID                                       : 5
Format                                   : PGS
Muxing mode                              : zlib
Codec ID                                 : S_HDMV/PGS
Codec ID/Info                            : Picture based subtitle format used on BDs/HD-DVDs
Duration                                 : 2 h 23 min
Bit rate                                 : 97.3 kb/s
Frame rate                               : 0.919 FPS
Count of elements                        : 7936
Stream size                              : 100 MiB (0%)
Title                                    : 中英双语特效
Language                                 : Chinese
Default                                  : Yes
Forced                                   : No
部分资源为软字幕,移动端推荐播放器:MxPlayer,nPlayer,infuse ,其他播放器请自行尝试。
部分资源为软字幕,电脑端推荐播放器:PotPlayer,完美解码,KMPLAYER,其他播放器请自行尝试。






~~~~~~~~~~~~~~~~~~~~~~~~~~~~~~~~~~~~~~~~~
[更 早][其它][剧情][BD-1080P]德州巴黎[中英双语特效字幕].Paris.Texas.Remaster.2010.BluRay.1080p.DTS-HD.MA.5.1.x264-

【文件列表】:


Paris.Texas.Remaster.2010.BluRay.1080p.DTS-HD.MA.5.1.x264-DreamHD.



【下载地址列表】:


游客
文件下载链接就在这里,在您回复评论成功后才能显示。
请勿回复无意义的灌水内容。


下拉页面到最底部回复或者【点击此处快捷回复】,回复后返回此处即可查看下载链接。
如您没注册本站会员,可以点击注册本站,注册后即可回复下载。



软字幕无法在截图上展现,HDR版本/杜比视界版本截图会出现颜色异常,请使用支持的设备播放!






[img][/img]






[img][/img]

(HDR版本/杜比视界版本,截图会出现颜色异常,请使用支持的设备播放)

小贴士:【影视自媒体解说文案请移步:夏至文案解说网 www.xiazhi.vip

上一篇:[2019][韩国][剧情][BD-1080P]寄生虫[中文字幕].Parasite.2019.BluRay.1080p.AAC.x264- 3.45GB
下一篇:[2018][其它][剧情][BD-1080P]彼得卢[中英字幕].Peterloo.2018.BluRay.1080p.DTS-HD.MA.5.1.x264- 18.30GB
回复

使用道具 举报

您需要登录后才可以回帖 登录 | 立即注册

本版积分规则

Archiver|手机版|小众纪录片影视聚合

GMT+8, 2024-7-22 06:43 , Processed in 0.092370 second(s), 14 queries , Gzip On, Redis On.

Powered by 小众纪录片影视聚合 @2010-2023

Copyright © 2010-2024, https://www.xzjlp.com/.


免责说明:本站所有内容链接、图文介绍等均来自于互联网网友分享,本站仅支持web页面展示和文字介绍,绝不提供在线观看和存储服务,也不参与录制、上传、压片。若本站收录内容无意侵犯贵司版权,请发邮件到【a885185#163.com】联系本站,我们将在第一时间删除侵权内容。谢谢!

快速回复 返回顶部 返回列表