小众纪录片影视聚合

 找回密码
 立即注册
查看: 6|回复: 0

[蓝光电影] [2016][香港][剧情][BD-1080P]恋爱之瘾[国语音轨/中文字幕].PG.Love.2017.BluRay.1080p.DD5.1.2Audio.x264- 7.07GB

[复制链接]

113万

主题

113万

帖子

113万

积分

超级版主

Rank: 8Rank: 8

积分
1134020
发表于 2024-7-9 21:05:38 | 显示全部楼层 |阅读模式


[2016][香港][剧情][BD-1080P]恋爱之瘾[国语音轨/中文字幕].PG.Love.2017.BluRay.1080p.DD5.1.2Audio.x264- 7.07GB

完整标题:恋爱之瘾[国语音轨/中文字幕].PG.Love.2017.BluRay.1080p.DD5.1.2Audio.x264-DreamHD 7.07GB
◎标  题 恋爱之瘾
◎译  名 PG恋爱指引 / PG Love
◎片  名 PG戀愛指引
◎年  代 2016
◎产  地 中国香港
◎类  别 剧情 / 喜剧 / 爱情
◎语  言 汉语普通话
◎上映日期 2017-11-17(中国大陆) / 2016-02-25(中国香港)
◎IMDb评分 4.5/10 (49人评价)
◎IMDb链接 https://www.imdb.com/title/tt6423408/
◎豆瓣评分 4.3/10 (1650人评价)
◎豆瓣链接 https://movie.douban.com/subject/27186155/
◎片  长 98分钟
◎导  演 蔡洁铃 Charlie Choi
◎编  剧 叶念琛 Patrick Kong
       潘幸枝 Ja Poon
◎演  员 岑日珈 Angie Shum
       崔碧珈 Anita Chui
       曾淑雅 Jumbo Tsang
       马志威 Edward Ma
       庄锶敏 Jacquelin Chong
       罗彩玲 Vivian Law
       陈婉衡 Alycia Chan
       林盛斌 Shing-Ban Lam
       邹文正 Terry Zou
       陆骏光 Alan Luk Chun-Kwong
       邵音音 Yin-Yin Shaw
       胡渭康 Wai-Hong Woo
       庄思明 Lisa Chong
       江嘉敏 Kaman Kong
       陈俞希 Hailey Chan
       林慧倩 Giselle Lam
◎简  介
    几个背景经历不同的女生,因为PG(Promotion girl)展开了不同的人生。晴晴 (岑日珈 饰)为储钱和男朋友志威(马志威 饰)去旅行,偷偷当上PG工作,后来志威发现后与她分手,而富二代Torres(赵劲皓 饰)也对她热烈追求,她周旋在二人之间。                                    Sugar(曾淑雅 饰)和Candy(崔碧珈 饰)是当红PG,善于用手段得到男人的好处,在一次富豪饭局认识了银行家Vincent(陆骏光 饰),二人因先后与他发展而反目,事后竟发现Vincent一个不可告人的秘密。                                    Vicky(陈婉衡 饰)和Sammy(罗彩宁 饰)是大学同学,希望借着PG工作引来网民关注,杀入模特儿行列,她们经常毫不吝啬地展示身材搏出位。                                    凤姐(庄思敏 饰)曾经叱咤PG界,在当红时遇上真爱而急流勇退。几年后她惨遭被抛弃而自暴自弃,直到重遇识于微时的Happy哥(林盛斌 饰),在他的多次支持下,终于再次建立自信。
点击图片可查看大图
软字幕无法在截图上展现,HDR版本/杜比视界版本截图会出现颜色异常,请使用支持的设备播放!
##### MediaInfo ######
General
Unique ID                                : 190426994448615493287011072260824278239 (0x8F42E7B3820DC3A6B50BDD244786A4DF)
Complete name                            : PG.Love.2017.BluRay.1080p.DD5.1.2Audio.x264-DreamHD.mkv
Duration                                 : 1 h 38 min
Overall bit rate                         : 10.3 Mb/s
Video
ID                                       : 1
Format                                   : AVC
Format/Info                              : Advanced Video Codec
Format profile                           : [email protected]
Format settings                          : CABAC / 4 Ref Frames
Format settings, CABAC                   : Yes
Format settings, Reference frames        : 4 frames
Codec ID                                 : V_MPEG4/ISO/AVC
Duration                                 : 1 h 38 min
Bit rate                                 : 9 006 kb/s
Width                                    : 1 920 pixels
Height                                   : 804 pixels
Display aspect ratio                     : 2.40:1
Frame rate mode                          : Constant
Frame rate                               : 24.000 FPS
Color space                              : YUV
Chroma subsampling                       : 4:2:0
Bit depth                                : 8 bits
Scan type                                : Progressive
Bits/(Pixel*Frame)                       : 0.243
Stream size                              : 6.17 GiB (87%)
Writing library                          : x264 core 149 r2771+45 509cceb 7mod [8-bit@all X86_64]
Encoding settings                        : cabac=1 / ref=4 / deblock=1:-3:-3 / analyse=0x3:0x113 / me=umh / subme=10 / psy=1 / fade_compensate=0.00 / psy_rd=0.90:0.10 / mixed_ref=1 / me_range=48 / chroma_me=1 / trellis=2 / 8x8dct=1 / cqm=0 / deadzone=21,11 / fast_pskip=0 / chroma_qp_offset=-2 / threads=12 / lookahead_threads=2 / sliced_threads=0 / nr=0 / decimate=1 / interlaced=0 / bluray_compat=0 / constrained_intra=0 / fgo=0 / bframes=8 / b_pyramid=2 / b_adapt=2 / b_bias=0 / direct=3 / weightb=1 / open_gop=0 / weightp=2 / keyint=250 / keyint_min=24 / scenecut=40 / intra_refresh=0 / rc_lookahead=40 / rc=crf / mbtree=0 / crf=19.0000 / qcomp=0.70 / qpmin=0:0:0 / qpmax=69:69:69 / qpstep=4 / vbv_maxrate=35000 / vbv_bufsize=35000 / crf_max=0.0 / nal_hrd=none / filler=0 / ip_ratio=1.40 / pb_ratio=1.30 / aq=3:1.00 / aq-sensitivity=10.00 / aq-factor=1.00:1.00:1.00 / aq2=0 / aq3=2:[0.50:0.50]:[0.50:0.50]:[0.50:0.50]:[0.50:0.50] / aq3-sensitivity=10.00 / aq3-factor=[1.00:1.00]:[1.00:1.00]:[1.00:1.00] / aq3-boundary=192:64:24
Language                                 : Chinese
Default                                  : Yes
Forced                                   : No
Color range                              : Limited
Matrix coefficients                      : BT.709
Audio #1
ID                                       : 2
Format                                   : AC-3
Format/Info                              : Audio Coding 3
Commercial name                          : Dolby Digital
Codec ID                                 : A_AC3
Duration                                 : 1 h 38 min
Bit rate mode                            : Constant
Bit rate                                 : 640 kb/s
Channel(s)                               : 6 channels
Channel layout                           : L R C LFE Ls Rs
Sampling rate                            : 48.0 kHz
Frame rate                               : 31.250 FPS (1536 SPF)
Compression mode                         : Lossy
Stream size                              : 449 MiB (6%)
Language                                 : Chinese
Service kind                             : Complete Main
Default                                  : Yes
Forced                                   : No
Audio #2
ID                                       : 3
Format                                   : AC-3
Format/Info                              : Audio Coding 3
Commercial name                          : Dolby Digital
Codec ID                                 : A_AC3
Duration                                 : 1 h 38 min
Bit rate mode                            : Constant
Bit rate                                 : 640 kb/s
Channel(s)                               : 6 channels
Channel layout                           : L R C LFE Ls Rs
Sampling rate                            : 48.0 kHz
Frame rate                               : 31.250 FPS (1536 SPF)
Compression mode                         : Lossy
Stream size                              : 449 MiB (6%)
Language                                 : Chinese
Service kind                             : Complete Main
Default                                  : No
Forced                                   : No
Text #1
ID                                       : 4
Format                                   : PGS
Muxing mode                              : zlib
Codec ID                                 : S_HDMV/PGS
Codec ID/Info                            : Picture based subtitle format used on BDs/HD-DVDs
Duration                                 : 1 h 35 min
Bit rate                                 : 18.6 kb/s
Frame rate                               : 0.526 FPS
Count of elements                        : 3001
Stream size                              : 12.7 MiB (0%)
Language                                 : Chinese
Default                                  : Yes
Forced                                   : No
Text #2
ID                                       : 5
Format                                   : PGS
Muxing mode                              : zlib
Codec ID                                 : S_HDMV/PGS
Codec ID/Info                            : Picture based subtitle format used on BDs/HD-DVDs
Duration                                 : 1 h 35 min
Bit rate                                 : 18.9 kb/s
Frame rate                               : 0.525 FPS
Count of elements                        : 2997
Stream size                              : 12.9 MiB (0%)
Language                                 : Chinese
Default                                  : No
Forced                                   : No
Menu
00:00:00.000                             : en:00:00:00.000
00:08:55.542                             : en:00:08:55.542
00:17:42.125                             : en:00:17:42.125
00:23:13.792                             : en:00:23:13.792
00:34:12.417                             : en:00:34:12.417
00:41:12.667                             : en:00:41:12.667
00:48:40.750                             : en:00:48:40.750
00:56:12.917                             : en:00:56:12.917
01:04:45.250                             : en:01:04:45.250
01:13:04.125                             : en:01:13:04.125
01:22:26.458                             : en:01:22:26.458
01:35:58.250                             : en:01:35:58.250
部分资源为软字幕,移动端推荐播放器:MxPlayer,nPlayer,infuse ,其他播放器请自行尝试。
部分资源为软字幕,电脑端推荐播放器:PotPlayer,完美解码,KMPLAYER,其他播放器请自行尝试。






~~~~~~~~~~~~~~~~~~~~~~~~~~~~~~~~~~~~~~~~~
[2016][香港][剧情][BD-1080P]恋爱之瘾[国语音轨/中文字幕].PG.Love.2017.BluRay.1080p.DD5.1.2Audio.x264- 7.07GB

【文件列表】:


PG.Love.2017.BluRay.1080p.DD5.1.2Audio.x264-DreamHD.



【下载地址列表】:


游客
文件下载链接就在这里,在您回复评论成功后才能显示。
请勿回复无意义的灌水内容。


下拉页面到最底部回复或者【点击此处快捷回复】,回复后返回此处即可查看下载链接。
如您没注册本站会员,可以点击注册本站,注册后即可回复下载。



软字幕无法在截图上展现,HDR版本/杜比视界版本截图会出现颜色异常,请使用支持的设备播放!






[img][/img]






[img][/img]

(HDR版本/杜比视界版本,截图会出现颜色异常,请使用支持的设备播放)

小贴士:【影视自媒体解说文案请移步:夏至文案解说网 www.xiazhi.vip

上一篇:[2018][其它][剧情][BD-1080P]彼得卢[中英字幕].Peterloo.2018.BluRay.1080p.DTS-HD.MA.5.1.x264- 18.30GB
下一篇:[更 早][其它][剧情][BD-1080P]菲德拉[中文字幕].Phaedra.1962.BluRay.1080p.DTS-HD.MA.2.0.x264- 12.55GB
回复

使用道具 举报

您需要登录后才可以回帖 登录 | 立即注册

本版积分规则

Archiver|手机版|小众纪录片影视聚合

GMT+8, 2024-7-20 18:42 , Processed in 0.197698 second(s), 13 queries , Gzip On, Redis On.

Powered by 小众纪录片影视聚合 @2010-2023

Copyright © 2010-2024, https://www.xzjlp.com/.


免责说明:本站所有内容链接、图文介绍等均来自于互联网网友分享,本站仅支持web页面展示和文字介绍,绝不提供在线观看和存储服务,也不参与录制、上传、压片。若本站收录内容无意侵犯贵司版权,请发邮件到【a885185#163.com】联系本站,我们将在第一时间删除侵权内容。谢谢!

快速回复 返回顶部 返回列表