小众纪录片影视聚合

 找回密码
 立即注册
查看: 8|回复: 0

[蓝光电影] [更 早][其它][剧情][BD-1080P]菲德拉[中文字幕].Phaedra.1962.BluRay.1080p.DTS-HD.MA.2.0.x264- 12.55GB

[复制链接]

116万

主题

116万

帖子

116万

积分

超级版主

Rank: 8Rank: 8

积分
1167997
发表于 2024-7-9 21:05:41 | 显示全部楼层 |阅读模式


[更 早][其它][剧情][BD-1080P]菲德拉[中文字幕].Phaedra.1962.BluRay.1080p.DTS-HD.MA.2.0.x264- 12.55GB

完整标题:菲德拉[中文字幕].Phaedra.1962.BluRay.1080p.DTS-HD.MA.2.0.x264-DreamHD 12.55GB
◎标  题 菲德拉
◎译  名 费德拉 / 朱门荡母
◎片  名 Phaedra
◎年  代 1962
◎产  地 法国 / 希腊 / 美国
◎类  别 剧情
◎语  言 英语 / 希腊语
◎上映日期 1962-09-07
◎IMDb评分 6.9/10 (1704人评价)
◎IMDb链接 https://www.imdb.com/title/tt0056346/
◎豆瓣评分 8.1/10 (170人评价)
◎豆瓣链接 https://movie.douban.com/subject/1472874/
◎片  长 115 分钟
◎导  演 朱尔斯·达辛 Jules Dassin
◎编  剧 朱尔斯·达辛 Jules Dassin
◎演  员 雷夫·瓦朗 Raf Vallone
       玛丽娜·墨蔻莉 Melina Mercouri
       安东尼·博金斯 Anthony Perkins
       马克·博昂 Marc Bohan
       Zorz Sarri Zorz Sarri
       Tasso Kavadia Tasso Kavadia
       Tzavalas Karousos Tzavalas Karousos
       费宗·乔治齐斯 Faidon Georgitsis
       伊丽莎白阿欣 Elizabeth Ercy
       朱尔斯·达辛 Jules Dassin
◎简  介
    A retelling of the Greek myth of Phaedra. In modern Greece, Alexis's father, an extremely wealthy shipping magnate, marries the younger, fiery Phaedra. When Alexis meets his stepmother, sparks fly and the two begin an affair. What will the Fates bring this family? Alexis's roadster and the music of Bach figure in the conclusion.
点击图片可查看大图
软字幕无法在截图上展现,HDR版本/杜比视界版本截图会出现颜色异常,请使用支持的设备播放!
##### MediaInfo ######
General
Unique ID                                : 131689204379093810084447818048214836558 (0x63126B0F96D7AC1E1D270D6DAFEAA54E)
Complete name                            : Phaedra.1962.BluRay.1080p.DTS-HD.MA.2.0.x264-DreamHD.mkv
Duration                                 : 1 h 56 min
Overall bit rate mode                    : Variable
Overall bit rate                         : 15.5 Mb/s
Video
ID                                       : 1
Format                                   : AVC
Format/Info                              : Advanced Video Codec
Format profile                           : [email protected]
Format settings                          : CABAC / 4 Ref Frames
Format settings, CABAC                   : Yes
Format settings, Reference frames        : 4 frames
Codec ID                                 : V_MPEG4/ISO/AVC
Duration                                 : 1 h 56 min
Bit rate                                 : 13.5 Mb/s
Width                                    : 1 792 pixels
Height                                   : 1 080 pixels
Display aspect ratio                     : 5:3
Frame rate mode                          : Constant
Frame rate                               : 23.976 (24000/1001) FPS
Color space                              : YUV
Chroma subsampling                       : 4:2:0
Bit depth                                : 8 bits
Scan type                                : Progressive
Bits/(Pixel*Frame)                       : 0.290
Stream size                              : 10.9 GiB (87%)
Writing library                          : x264 core 160 r3009 4c9b076
Encoding settings                        : cabac=1 / ref=4 / deblock=1:-3:-3 / analyse=0x3:0x133 / me=esa / subme=11 / psy=1 / psy_rd=1.00:0.00 / mixed_ref=1 / me_range=32 / chroma_me=1 / trellis=2 / 8x8dct=1 / cqm=0 / deadzone=6,6 / fast_pskip=0 / chroma_qp_offset=-2 / threads=34 / lookahead_threads=8 / sliced_threads=0 / nr=0 / decimate=0 / interlaced=0 / bluray_compat=0 / constrained_intra=0 / bframes=12 / b_pyramid=2 / b_adapt=2 / b_bias=0 / direct=3 / weightb=1 / open_gop=0 / weightp=2 / keyint=250 / keyint_min=23 / scenecut=40 / intra_refresh=0 / rc=crf / mbtree=0 / crf=21.0 / qcomp=0.70 / qpmin=0 / qpmax=69 / qpstep=4 / ip_ratio=1.30 / pb_ratio=1.20 / aq=3:0.60
Language                                 : English
Default                                  : Yes
Forced                                   : No
Color range                              : Limited
Color primaries                          : BT.709
Matrix coefficients                      : BT.709
Audio
ID                                       : 2
Format                                   : DTS XLL
Format/Info                              : Digital Theater Systems
Commercial name                          : DTS-HD Master Audio
Codec ID                                 : A_DTS
Duration                                 : 1 h 56 min
Bit rate mode                            : Variable
Bit rate                                 : 1 937 kb/s
Channel(s)                               : 2 channels
Channel layout                           : L R
Sampling rate                            : 48.0 kHz
Frame rate                               : 93.750 FPS (512 SPF)
Bit depth                                : 24 bits
Compression mode                         : Lossless
Stream size                              : 1.57 GiB (13%)
Language                                 : English
Default                                  : Yes
Forced                                   : No
Text #1
ID                                       : 3
Format                                   : PGS
Muxing mode                              : zlib
Codec ID                                 : S_HDMV/PGS
Codec ID/Info                            : Picture based subtitle format used on BDs/HD-DVDs
Duration                                 : 1 h 56 min
Bit rate                                 : 58.0 kb/s
Frame rate                               : 0.473 FPS
Count of elements                        : 3298
Stream size                              : 48.2 MiB (0%)
Language                                 : English
Default                                  : Yes
Forced                                   : No
Text #2
ID                                       : 4
Format                                   : UTF-8
Codec ID                                 : S_TEXT/UTF8
Codec ID/Info                            : UTF-8 Plain Text
Duration                                 : 1 h 55 min
Bit rate                                 : 30 b/s
Frame rate                               : 0.117 FPS
Count of elements                        : 810
Stream size                              : 25.9 KiB (0%)
Language                                 : Chinese
Default                                  : No
Forced                                   : No
Menu
00:00:00.000                             :  Chapitre 01
00:08:03.250                             :  Chapitre 02
00:16:13.250                             :  Chapitre 03
00:25:17.333                             :  Chapitre 04
00:32:30.000                             :  Chapitre 05
00:40:02.208                             :  Chapitre 06
00:48:28.417                             :  Chapitre 07
00:54:42.417                             :  Chapitre 08
01:00:40.000                             :  Chapitre 09
01:11:02.042                             :  Chapitre 10
01:20:43.000                             :  Chapitre 11
01:30:28.000                             :  Chapitre 12
部分资源为软字幕,移动端推荐播放器:MxPlayer,nPlayer,infuse ,其他播放器请自行尝试。
部分资源为软字幕,电脑端推荐播放器:PotPlayer,完美解码,KMPLAYER,其他播放器请自行尝试。






~~~~~~~~~~~~~~~~~~~~~~~~~~~~~~~~~~~~~~~~~
[更 早][其它][剧情][BD-1080P]菲德拉[中文字幕].Phaedra.1962.BluRay.1080p.DTS-HD.MA.2.0.x264- 12.55GB

【文件列表】:


Phaedra.1962.BluRay.1080p.DTS-HD.MA.2.0.x264-DreamHD.



【下载地址列表】:


游客
文件下载链接就在这里,在您回复评论成功后才能显示。
请勿回复无意义的灌水内容。


下拉页面到最底部回复或者【点击此处快捷回复】,回复后返回此处即可查看下载链接。
如您没注册本站会员,可以点击注册本站,注册后即可回复下载。



软字幕无法在截图上展现,HDR版本/杜比视界版本截图会出现颜色异常,请使用支持的设备播放!






[img][/img]






[img][/img]

(HDR版本/杜比视界版本,截图会出现颜色异常,请使用支持的设备播放)

小贴士:【影视自媒体解说文案请移步:夏至文案解说网 www.xiazhi.vip

上一篇:[2016][香港][剧情][BD-1080P]恋爱之瘾[国语音轨/中文字幕].PG.Love.2017.BluRay.1080p.DD5.1.2Audio.x264- 7.07GB
下一篇:[2017][欧美][科幻][BD-1080P]凤凰城遗忘录[中英字幕].Phoenix.Forgotten.2017.BluRay.1080p.DTS-HD.MA.5.1.x264- 10.9
回复

使用道具 举报

您需要登录后才可以回帖 登录 | 立即注册

本版积分规则

Archiver|手机版|小众纪录片影视聚合

GMT+8, 2024-7-24 23:05 , Processed in 0.143976 second(s), 13 queries , Gzip On, Redis On.

Powered by 小众纪录片影视聚合 @2010-2023

Copyright © 2010-2024, https://www.xzjlp.com/.


免责说明:本站所有内容链接、图文介绍等均来自于互联网网友分享,本站仅支持web页面展示和文字介绍,绝不提供在线观看和存储服务,也不参与录制、上传、压片。若本站收录内容无意侵犯贵司版权,请发邮件到【a885185#163.com】联系本站,我们将在第一时间删除侵权内容。谢谢!

快速回复 返回顶部 返回列表