小众纪录片影视聚合

 找回密码
 立即注册
查看: 9|回复: 0

[蓝光电影] [2017][欧美][科幻][BD-1080P]凤凰城遗忘录[中英字幕].Phoenix.Forgotten.2017.BluRay.1080p.DTS-HD.MA.5.1.x264- 10.9

[复制链接]

116万

主题

116万

帖子

116万

积分

超级版主

Rank: 8Rank: 8

积分
1167997
发表于 2024-7-9 21:05:45 | 显示全部楼层 |阅读模式


[2017][欧美][科幻][BD-1080P]凤凰城遗忘录[中英字幕].Phoenix.Forgotten.2017.BluRay.1080p.DTS-HD.MA.5.1.x264- 10.9

完整标题:凤凰城遗忘录[中英字幕].Phoenix.Forgotten.2017.BluRay.1080p.DTS-HD.MA.5.1.x264-DreamHD 10.99GB
◎标  题 凤凰城遗忘录
◎译  名 异星实录(台)
◎片  名 Phoenix Forgotten
◎年  代 2017
◎产  地 美国
◎类  别 科幻 / 悬疑 / 恐怖
◎语  言 英语
◎上映日期 2018-06-22(中国大陆) / 2017-04-21(美国)
◎IMDb评分 5.3/10 (6582人评价)
◎IMDb链接 https://www.imdb.com/title/tt6574272/
◎豆瓣评分 5.9/10 (2481人评价)
◎豆瓣链接 https://movie.douban.com/subject/26990268/
◎片  长 87分钟
◎导  演 贾斯廷 巴伯 Justin Barber
◎编  剧 T·S·诺林 T.S. Nowlin
       贾斯廷 巴伯 Justin Barber
◎演  员 弗洛伦斯·哈尔蒂根 Florence Hartigan
       卢克·斯宾塞·罗伯茨 Luke Spencer Roberts
       切尔西·洛佩兹 Chelsea Lopez
       贾斯汀·马修斯 Justin Matthews
       克林特·乔丹 Clint Jordan
       赛恩斯雀里马特 Cyd Strittmatter
       雅尼娜·杰克逊 Jeanine Jackson
       马特·比德尔 Matt Biedel
       安娜·德拉·克鲁兹 Ana Dela Cruz
       麦肯齐·菲尔根斯 Mackenzie Firgens
       杰伊·皮卢兹尼亚 Jay Pirouznia
       马克·马隆 Marc Marron
       唐·博伊德 Don Boyd
◎简  介
    影片讲述了凤凰城UFO事件之后,奇怪的事情开始接连发生,三名青少年乔希、艾希莉、马克在用DV记录这一切的过程中突然离奇失踪,至今下落不明。在他们失踪二十周年之际,乔希的妹妹苏菲为了寻找真相,决定和男朋友杰伊展开调查,随着当年拍摄的内容不断被披露,隐藏在背后的真相也将浮出水面。
点击图片可查看大图
软字幕无法在截图上展现,HDR版本/杜比视界版本截图会出现颜色异常,请使用支持的设备播放!
##### MediaInfo ######
General
Unique ID                                : 33862347610779136049228723049979125799 (0x1979A6A306BFD6C363BD9162BC172027)
Complete name                            : Phoenix.Forgotten.2017.BluRay.1080p.DTS-HD.MA.5.1.x264-DreamHD.mkv
Duration                                 : 1 h 26 min
Overall bit rate mode                    : Variable
Overall bit rate                         : 18.1 Mb/s
Video
ID                                       : 1
Format                                   : AVC
Format/Info                              : Advanced Video Codec
Format profile                           : [email protected]
Format settings                          : CABAC / 4 Ref Frames
Format settings, CABAC                   : Yes
Format settings, Reference frames        : 4 frames
Codec ID                                 : V_MPEG4/ISO/AVC
Duration                                 : 1 h 26 min
Bit rate                                 : 14.6 Mb/s
Width                                    : 1 920 pixels
Height                                   : 1 080 pixels
Display aspect ratio                     : 16:9
Frame rate mode                          : Constant
Frame rate                               : 23.976 (24000/1001) FPS
Color space                              : YUV
Chroma subsampling                       : 4:2:0
Bit depth                                : 8 bits
Scan type                                : Progressive
Bits/(Pixel*Frame)                       : 0.293
Stream size                              : 8.81 GiB (80%)
Writing library                          : x264 core 160 r3009 4c9b076
Encoding settings                        : cabac=1 / ref=4 / deblock=1:-3:-3 / analyse=0x3:0x133 / me=esa / subme=11 / psy=1 / psy_rd=1.00:0.00 / mixed_ref=1 / me_range=64 / chroma_me=1 / trellis=2 / 8x8dct=1 / cqm=0 / deadzone=21,11 / fast_pskip=0 / chroma_qp_offset=-2 / threads=34 / lookahead_threads=8 / sliced_threads=0 / nr=0 / decimate=0 / interlaced=0 / bluray_compat=0 / constrained_intra=0 / bframes=12 / b_pyramid=2 / b_adapt=2 / b_bias=0 / direct=3 / weightb=1 / open_gop=0 / weightp=2 / keyint=250 / keyint_min=23 / scenecut=40 / intra_refresh=0 / rc=crf / mbtree=0 / crf=18.0 / qcomp=0.70 / qpmin=0 / qpmax=69 / qpstep=4 / ip_ratio=1.30 / pb_ratio=1.20 / aq=3:0.80
Language                                 : English
Default                                  : Yes
Forced                                   : No
Color range                              : Limited
Color primaries                          : BT.709
Matrix coefficients                      : BT.709
Audio #1
ID                                       : 2
Format                                   : DTS XLL
Format/Info                              : Digital Theater Systems
Commercial name                          : DTS-HD Master Audio
Codec ID                                 : A_DTS
Duration                                 : 1 h 26 min
Bit rate mode                            : Variable
Bit rate                                 : 3 392 kb/s
Channel(s)                               : 6 channels
Channel layout                           : C L R Ls Rs LFE
Sampling rate                            : 48.0 kHz
Frame rate                               : 93.750 FPS (512 SPF)
Bit depth                                : 24 bits
Compression mode                         : Lossless
Stream size                              : 2.05 GiB (19%)
Language                                 : English
Default                                  : Yes
Forced                                   : No
Audio #2
ID                                       : 3
Format                                   : AAC LC
Format/Info                              : Advanced Audio Codec Low Complexity
Codec ID                                 : A_AAC-2
Duration                                 : 1 h 26 min
Bit rate                                 : 192 kb/s
Channel(s)                               : 2 channels
Channel layout                           : L R
Sampling rate                            : 48.0 kHz
Frame rate                               : 46.875 FPS (1024 SPF)
Compression mode                         : Lossy
Stream size                              : 119 MiB (1%)
Title                                    : Commentary with Justin Barber, Florence Hartigan, Chelsea Lopez and Justin Matthews
Language                                 : English
Default                                  : No
Forced                                   : No
Text #1
ID                                       : 4
Format                                   : UTF-8
Codec ID                                 : S_TEXT/UTF8
Codec ID/Info                            : UTF-8 Plain Text
Duration                                 : 1 h 20 min
Bit rate                                 : 66 b/s
Frame rate                               : 0.269 FPS
Count of elements                        : 1305
Stream size                              : 39.2 KiB (0%)
Language                                 : Chinese
Default                                  : Yes
Forced                                   : No
Text #2
ID                                       : 5
Format                                   : UTF-8
Codec ID                                 : S_TEXT/UTF8
Codec ID/Info                            : UTF-8 Plain Text
Duration                                 : 1 h 20 min
Bit rate                                 : 66 b/s
Frame rate                               : 0.269 FPS
Count of elements                        : 1305
Stream size                              : 39.2 KiB (0%)
Language                                 : Chinese
Default                                  : No
Forced                                   : No
Text #3
ID                                       : 6
Format                                   : UTF-8
Codec ID                                 : S_TEXT/UTF8
Codec ID/Info                            : UTF-8 Plain Text
Duration                                 : 1 h 18 min
Bit rate                                 : 84 b/s
Frame rate                               : 0.287 FPS
Count of elements                        : 1353
Stream size                              : 48.6 KiB (0%)
Language                                 : English
Default                                  : No
Forced                                   : No
Menu
00:00:00.000                             : en:CHAPTER01
00:02:51.463                             : en:CHAPTER02
00:05:52.060                             : en:CHAPTER03
00:09:26.399                             : en:CHAPTER04
00:12:09.604                             : en:CHAPTER05
00:14:51.849                             : en:CHAPTER06
00:18:09.714                             : en:CHAPTER07
00:20:33.357                             : en:CHAPTER08
00:23:52.640                             : en:CHAPTER09
00:27:32.484                             : en:CHAPTER10
00:29:49.746                             : en:CHAPTER11
00:32:22.899                             : en:CHAPTER12
00:35:52.567                             : en:CHAPTER13
00:37:49.642                             : en:CHAPTER14
00:40:34.891                             : en:CHAPTER15
00:44:01.264                             : en:CHAPTER16
00:46:37.628                             : en:CHAPTER17
00:49:23.419                             : en:CHAPTER18
00:52:57.800                             : en:CHAPTER19
00:54:51.163                             : en:CHAPTER20
00:57:02.085                             : en:CHAPTER21
01:01:04.578                             : en:CHAPTER22
01:05:02.565                             : en:CHAPTER23
01:08:44.495                             : en:CHAPTER24
01:13:22.440                             : en:CHAPTER25
01:16:10.524                             : en:CHAPTER26
01:18:55.648                             : en:CHAPTER27
01:20:19.815                             : en:CHAPTER28
部分资源为软字幕,移动端推荐播放器:MxPlayer,nPlayer,infuse ,其他播放器请自行尝试。
部分资源为软字幕,电脑端推荐播放器:PotPlayer,完美解码,KMPLAYER,其他播放器请自行尝试。






~~~~~~~~~~~~~~~~~~~~~~~~~~~~~~~~~~~~~~~~~
[2017][欧美][科幻][BD-1080P]凤凰城遗忘录[中英字幕].Phoenix.Forgotten.2017.BluRay.1080p.DTS-HD.MA.5.1.x264- 10.9

【文件列表】:


Phoenix.Forgotten.2017.BluRay.1080p.DTS-HD.MA.5.1.x264-DreamHD.



【下载地址列表】:


游客
文件下载链接就在这里,在您回复评论成功后才能显示。
请勿回复无意义的灌水内容。


下拉页面到最底部回复或者【点击此处快捷回复】,回复后返回此处即可查看下载链接。
如您没注册本站会员,可以点击注册本站,注册后即可回复下载。



软字幕无法在截图上展现,HDR版本/杜比视界版本截图会出现颜色异常,请使用支持的设备播放!






[img][/img]






[img][/img]

(HDR版本/杜比视界版本,截图会出现颜色异常,请使用支持的设备播放)

小贴士:【影视自媒体解说文案请移步:夏至文案解说网 www.xiazhi.vip

上一篇:[更 早][其它][剧情][BD-1080P]菲德拉[中文字幕].Phaedra.1962.BluRay.1080p.DTS-HD.MA.2.0.x264- 12.55GB
下一篇:[2018][欧美][惊悚][BD-1080P]刺透[中文字幕].Piercing.2018.BluRay.1080p.DD5.1.x264- 6.90GB
回复

使用道具 举报

您需要登录后才可以回帖 登录 | 立即注册

本版积分规则

Archiver|手机版|小众纪录片影视聚合

GMT+8, 2024-7-25 00:01 , Processed in 0.213877 second(s), 13 queries , Gzip On, Redis On.

Powered by 小众纪录片影视聚合 @2010-2023

Copyright © 2010-2024, https://www.xzjlp.com/.


免责说明:本站所有内容链接、图文介绍等均来自于互联网网友分享,本站仅支持web页面展示和文字介绍,绝不提供在线观看和存储服务,也不参与录制、上传、压片。若本站收录内容无意侵犯贵司版权,请发邮件到【a885185#163.com】联系本站,我们将在第一时间删除侵权内容。谢谢!

快速回复 返回顶部 返回列表