小众纪录片影视聚合

 找回密码
 立即注册
查看: 4|回复: 0

[蓝光电影] [更 早][香港][动作][BD-1080P]都市煞星[国语配音/中文字幕].Point.of.No.Return.1990.Bluray.1080p.TrueHD5.1.x264- 12.0

[复制链接]

116万

主题

116万

帖子

116万

积分

超级版主

Rank: 8Rank: 8

积分
1167997
发表于 2024-7-9 21:06:09 | 显示全部楼层 |阅读模式


[更 早][香港][动作][BD-1080P]都市煞星[国语配音/中文字幕].Point.of.No.Return.1990.Bluray.1080p.TrueHD5.1.x264- 12.0

完整标题:都市煞星[国语配音/中文字幕].Point.of.No.Return.1990.Bluray.1080p.TrueHD5.1.x264-DreamHD 12.05GB
◎标  题 都市煞星
◎译  名 杀手无名 / Point of No Return / Point of Return
◎年  代 1990
◎产  地 中国香港
◎类  别 动作 / 犯罪
◎语  言 粤语
◎上映日期 1990-10-25(中国香港)
◎IMDb评分 5.2/10 (51人评价)
◎IMDb链接 https://www.imdb.com/title/tt0101782/
◎豆瓣评分 6.0/10 (1073人评价)
◎豆瓣链接 https://movie.douban.com/subject/1307933/
◎片  长 94 分钟
◎导  演 黎应就 Guy Lai
◎编  剧 庄澄 John Chong
       周振荣 Jan-Wing Chow
◎演  员 张学友 Jacky Cheung
       王祖贤 Joey Wong
       谭耀文 Patrick Tam
       曾江 Kenneth Tsang
       文森特·林 Vincent Lyn
       王志文 Chi Man Wong
       肥伯 Pak Fei
       伍国健 Kwok-kin Ng
       何柏光 Pak-Kwong Ho
       冯克安 Hark-On Fung
       吴浣仪 Yuen Yee Ng
       杨群 Peter Yang Kwan
       鲍方 Fong Pau
       卢惠光 Ken Lo
       周美成 Mei-Shing Chow
◎简  介
    蚊叔(曾江 饰)是位职业的杀手代理人,其亲生儿子K.K(谭耀文 饰)和养子金鹰(张学友 饰)都是其手下得力的杀手。在一次行动中,二人结识了Joy(王祖贤 饰),在慢慢的相处中金鹰和Joy顺其自然的相恋了。金鹰此时却接到了一个任务:替Joy父亲的死对头大碌杀掉Joy父亲。后任务由KK执行,却未能成功,更意外的是,大碌中了KK的飞刀而死。这让杀手集团误以为是KK等人设计干掉了集团的客人大碌,遵照集团的规矩,KK等人必须被处死,而且集团的霍老已经将金鹰、KK、Joy抓了起来,并要求蚊叔亲手处决。一边是亲人的性命,一面是难以抵抗的暴力,蚊叔该如何抉择?他们能够逃过此劫吗?
点击图片可查看大图
软字幕无法在截图上展现,HDR版本/杜比视界版本截图会出现颜色异常,请使用支持的设备播放!
##### MediaInfo ######
General
Unique ID                                : 121337030527195917383785526970979361449 (0x5B48A97BD0F356635D3C8BBCDF72A2A9)
Complete name                            : Point.of.No.Return.1990.Bluray.1080p.TrueHD5.1.x264-DreamHD.mkv
Duration                                 : 1 h 34 min
Overall bit rate mode                    : Variable
Overall bit rate                         : 18.3 Mb/s
Video
ID                                       : 1
Format                                   : AVC
Format/Info                              : Advanced Video Codec
Format profile                           : [email protected]
Format settings                          : CABAC / 4 Ref Frames
Format settings, CABAC                   : Yes
Format settings, Reference frames        : 4 frames
Codec ID                                 : V_MPEG4/ISO/AVC
Duration                                 : 1 h 34 min
Bit rate                                 : 14.4 Mb/s
Width                                    : 1 918 pixels
Height                                   : 1 080 pixels
Display aspect ratio                     : 16:9
Frame rate mode                          : Constant
Frame rate                               : 24.000 FPS
Color space                              : YUV
Chroma subsampling                       : 4:2:0
Bit depth                                : 8 bits
Scan type                                : Progressive
Bits/(Pixel*Frame)                       : 0.289
Stream size                              : 9.47 GiB (79%)
Writing library                          : x264 core 157 r2867+150 7e91e0e t_mod_Custom_2 [8-bit@all X86_64]
Encoding settings                        : cabac=1 / ref=4 / deblock=1:-3:-3 / analyse=0x3:0x133 / me=umh / subme=11 / psy=1 / fade_compensate=0.00 / psy_rd=0.90:0.10 / mixed_ref=1 / me_range=64 / chroma_me=1 / trellis=2 / 8x8dct=1 / cqm=0 / deadzone=21,11 / fast_pskip=0 / chroma_qp_offset=-4 / threads=34 / lookahead_threads=5 / sliced_threads=0 / nr=0 / decimate=1 / interlaced=0 / bluray_compat=0 / constrained_intra=0 / fgo=0 / bframes=8 / b_pyramid=2 / b_adapt=2 / b_bias=0 / direct=3 / weightb=1 / open_gop=0 / weightp=2 / keyint=250 / keyint_min=24 / scenecut=40 / intra_refresh=0 / rc_lookahead=60 / rc=crf / mbtree=0 / crf=18.0000 / qcomp=0.70 / qpmin=0:0:0 / qpmax=69:69:69 / qpstep=4 / vbv_maxrate=35000 / vbv_bufsize=35000 / crf_max=0.0 / nal_hrd=none / filler=0 / ip_ratio=1.40 / pb_ratio=1.30 / aq=3:1.00 / aq-sensitivity=10.00 / aq-factor=1.00:1.00:1.00 / aq2=0 / aq3=0
Language                                 : Chinese
Default                                  : Yes
Forced                                   : No
Audio #1
ID                                       : 2
Format                                   : MLP FBA
Format/Info                              : Meridian Lossless Packing FBA
Commercial name                          : Dolby TrueHD
Codec ID                                 : A_TRUEHD
Duration                                 : 1 h 34 min
Bit rate mode                            : Variable
Bit rate                                 : 1 873 kb/s
Maximum bit rate                         : 2 034 kb/s
Channel(s)                               : 6 channels
Channel layout                           : L R C LFE Ls Rs
Sampling rate                            : 96.0 kHz
Frame rate                               : 1 200.000 FPS (80 SPF)
Compression mode                         : Lossless
Stream size                              : 1.23 GiB (10%)
Default                                  : Yes
Forced                                   : No
Audio #2
ID                                       : 3
Format                                   : MLP FBA
Format/Info                              : Meridian Lossless Packing FBA
Commercial name                          : Dolby TrueHD
Codec ID                                 : A_TRUEHD
Duration                                 : 1 h 34 min
Bit rate mode                            : Variable
Bit rate                                 : 1 883 kb/s
Maximum bit rate                         : 2 082 kb/s
Channel(s)                               : 6 channels
Channel layout                           : L R C LFE Ls Rs
Sampling rate                            : 96.0 kHz
Frame rate                               : 1 200.000 FPS (80 SPF)
Compression mode                         : Lossless
Stream size                              : 1.24 GiB (10%)
Default                                  : Yes
Forced                                   : No
Text #1
ID                                       : 4
Format                                   : PGS
Muxing mode                              : zlib
Codec ID                                 : S_HDMV/PGS
Codec ID/Info                            : Picture based subtitle format used on BDs/HD-DVDs
Duration                                 : 1 h 31 min
Bit rate                                 : 26.3 kb/s
Frame rate                               : 0.312 FPS
Count of elements                        : 1717
Stream size                              : 17.3 MiB (0%)
Language                                 : Chinese
Default                                  : Yes
Forced                                   : No
Text #2
ID                                       : 5
Format                                   : PGS
Muxing mode                              : zlib
Codec ID                                 : S_HDMV/PGS
Codec ID/Info                            : Picture based subtitle format used on BDs/HD-DVDs
Duration                                 : 1 h 31 min
Bit rate                                 : 26.6 kb/s
Frame rate                               : 0.310 FPS
Count of elements                        : 1691
Stream size                              : 17.3 MiB (0%)
Language                                 : Chinese
Default                                  : Yes
Forced                                   : No
Text #3
ID                                       : 6
Format                                   : PGS
Muxing mode                              : zlib
Codec ID                                 : S_HDMV/PGS
Codec ID/Info                            : Picture based subtitle format used on BDs/HD-DVDs
Duration                                 : 1 h 31 min
Bit rate                                 : 28.4 kb/s
Frame rate                               : 0.312 FPS
Count of elements                        : 1717
Stream size                              : 18.6 MiB (0%)
Language                                 : English
Default                                  : Yes
Forced                                   : No
Menu
00:00:00.000                             : en:第 01 章
00:09:24.500                             : en:第 02 章
00:17:39.917                             : en:第 03 章
00:24:58.667                             : en:第 04 章
00:29:47.917                             : en:第 05 章
00:36:29.625                             : en:第 06 章
00:42:46.458                             : en:第 07 章
00:50:26.750                             : en:第 08 章
00:58:45.292                             : en:第 09 章
01:06:12.083                             : en:第 10 章
01:14:24.125                             : en:第 11 章
01:22:59.625                             : en:第 12 章
部分资源为软字幕,移动端推荐播放器:MxPlayer,nPlayer,infuse ,其他播放器请自行尝试。
部分资源为软字幕,电脑端推荐播放器:PotPlayer,完美解码,KMPLAYER,其他播放器请自行尝试。






~~~~~~~~~~~~~~~~~~~~~~~~~~~~~~~~~~~~~~~~~
[更 早][香港][动作][BD-1080P]都市煞星[国语配音/中文字幕].Point.of.No.Return.1990.Bluray.1080p.TrueHD5.1.x264- 12.0

【文件列表】:


Point.of.No.Return.1990.Bluray.1080p.TrueHD5.1.x264-DreamHD.



【下载地址列表】:


游客
文件下载链接就在这里,在您回复评论成功后才能显示。
请勿回复无意义的灌水内容。


下拉页面到最底部回复或者【点击此处快捷回复】,回复后返回此处即可查看下载链接。
如您没注册本站会员,可以点击注册本站,注册后即可回复下载。



软字幕无法在截图上展现,HDR版本/杜比视界版本截图会出现颜色异常,请使用支持的设备播放!






[img][/img]






[img][/img]

(HDR版本/杜比视界版本,截图会出现颜色异常,请使用支持的设备播放)

小贴士:【影视自媒体解说文案请移步:夏至文案解说网 www.xiazhi.vip

上一篇:[2023][其它][动作][BD-4K]飞机陷落[HDR/杜比视界双版本][中文字幕/特效字幕].Plane.2023.UHD.BluRay.REMUX.2160p.HEVC.DoVi.HDR.Atm
下一篇:[2015][日本][剧情][BD-1080P]脑内中毒大作战[中文字幕].Poison.Berry.in.My.Brain.2015.BluRay.1080p.DTS-HD.MA.5.1.x264-Drea
回复

使用道具 举报

您需要登录后才可以回帖 登录 | 立即注册

本版积分规则

Archiver|手机版|小众纪录片影视聚合

GMT+8, 2024-7-24 23:10 , Processed in 0.114475 second(s), 13 queries , Gzip On, Redis On.

Powered by 小众纪录片影视聚合 @2010-2023

Copyright © 2010-2024, https://www.xzjlp.com/.


免责说明:本站所有内容链接、图文介绍等均来自于互联网网友分享,本站仅支持web页面展示和文字介绍,绝不提供在线观看和存储服务,也不参与录制、上传、压片。若本站收录内容无意侵犯贵司版权,请发邮件到【a885185#163.com】联系本站,我们将在第一时间删除侵权内容。谢谢!

快速回复 返回顶部 返回列表