小众纪录片影视聚合

 找回密码
 立即注册
查看: 7|回复: 0

[蓝光电影] [2015][日本][剧情][BD-1080P]脑内中毒大作战[中文字幕].Poison.Berry.in.My.Brain.2015.BluRay.1080p.DTS-HD.MA.5.1.x264-Drea

[复制链接]

116万

主题

116万

帖子

116万

积分

超级版主

Rank: 8Rank: 8

积分
1167997
发表于 2024-7-9 21:06:13 | 显示全部楼层 |阅读模式


[2015][日本][剧情][BD-1080P]脑内中毒大作战[中文字幕].Poison.Berry.in.My.Brain.2015.BluRay.1080p.DTS-HD.MA.5.1.x264-Drea

完整标题:脑内中毒大作战[中文字幕].Poison.Berry.in.My.Brain.2015.BluRay.1080p.DTS-HD.MA.5.1.x264-DreamHD 15.67GB
◎标  题 脑内中毒大作战
◎译  名 恋爱中毒大作战 / 脑内剧毒浆果 / Poison Berry in My Brain / Nounai Poison Berry
◎片  名 脳内ポイズンベリー
◎年  代 2015
◎产  地 日本
◎类  别 剧情 / 喜剧
◎语  言 日语
◎上映日期 2015-05-09(日本)
◎IMDb评分 6.4/10 (290人评价)
◎IMDb链接 https://www.imdb.com/title/tt4063438/
◎豆瓣评分 6.5/10 (5499人评价)
◎豆瓣链接 https://movie.douban.com/subject/26011817/
◎片  长 121分钟
◎导  演 佐藤祐市 Yûichi Satô
◎编  剧 相泽友子 Tomoko Aizawa
       水城雪可奈 Setona Mizushiro
◎演  员 真木阳子 Yoko Maki
       西岛秀俊 Hidetoshi Nishijima
       古川雄辉 Yûki Furukawa
       成河 Songha
       吉田羊 Yô Yoshida
       樱田日和 Hiyori Sakurada
       神木隆之介 Ryûnosuke Kamiki
       浅野和之 Kazuyuki Asano
       野波麻帆 Maho Nonami
       冈本玲 Rei Okamoto
◎简  介
    现年三十岁的樱井市子(真木阳子 饰)由于性格原因,始终未曾拥有一段幸福甜蜜的爱情。前不久的聚会上她认识了帅气又有些木讷的23岁青年早乙女亮一(古川雄辉 饰)。当市子与对方在熙攘的车站重逢时,她的心中竟然产生某种悸动。是上前打招呼?还是默默路过?此时此刻,市子大脑里的会议室乱成一锅粥,担任议长的“理性”吉田(西岛秀俊 饰)倡议举手表决,“积极”的石桥(神木隆之介 饰)和“冲动”的鸠子(樱田日和 饰)坚持要上前搭讪,而“消极”池田(吉田羊 饰)则抵死不从,一旁负责记忆的岸先生(浅野和之 饰)不紧不慢记录会议的内容。在这五个小人的驱使下,市子走上前去,而一段奇妙的恋情也由此展开……                                    本片根据水城雪可奈2010年发表的少女漫画改编。
点击图片可查看大图
软字幕无法在截图上展现,HDR版本/杜比视界版本截图会出现颜色异常,请使用支持的设备播放!
##### MediaInfo ######
General
Unique ID                                : 291280447243134160463483815765236088244 (0xDB2292D490FF937CE7F3B2CF277D7DB4)
Complete name                            : Poison.Berry.in.My.Brain.2015.BluRay.1080p.DTS-HD.MA.5.1.x264-DreamHD.mkv
Duration                                 : 2 h 0 min
Overall bit rate mode                    : Variable
Overall bit rate                         : 18.6 Mb/s
Video
ID                                       : 1
Format                                   : AVC
Format/Info                              : Advanced Video Codec
Format profile                           : [email protected]
Format settings                          : CABAC / 4 Ref Frames
Format settings, CABAC                   : Yes
Format settings, Reference frames        : 4 frames
Codec ID                                 : V_MPEG4/ISO/AVC
Duration                                 : 2 h 0 min
Bit rate                                 : 15.2 Mb/s
Width                                    : 1 920 pixels
Height                                   : 1 038 pixels
Display aspect ratio                     : 1.85:1
Frame rate mode                          : Constant
Frame rate                               : 23.976 (24000/1001) FPS
Color space                              : YUV
Chroma subsampling                       : 4:2:0
Bit depth                                : 8 bits
Scan type                                : Progressive
Bits/(Pixel*Frame)                       : 0.318
Stream size                              : 12.8 GiB (82%)
Writing library                          : x264 core 160 r3009 4c9b076
Encoding settings                        : cabac=1 / ref=4 / deblock=1:-3:-3 / analyse=0x3:0x133 / me=esa / subme=11 / psy=1 / psy_rd=1.00:0.00 / mixed_ref=1 / me_range=64 / chroma_me=1 / trellis=2 / 8x8dct=1 / cqm=0 / deadzone=21,11 / fast_pskip=0 / chroma_qp_offset=-2 / threads=32 / lookahead_threads=8 / sliced_threads=0 / nr=0 / decimate=0 / interlaced=0 / bluray_compat=0 / constrained_intra=0 / bframes=12 / b_pyramid=2 / b_adapt=2 / b_bias=0 / direct=3 / weightb=1 / open_gop=0 / weightp=2 / keyint=250 / keyint_min=23 / scenecut=40 / intra_refresh=0 / rc=crf / mbtree=0 / crf=19.0 / qcomp=0.70 / qpmin=0 / qpmax=69 / qpstep=4 / ip_ratio=1.30 / pb_ratio=1.20 / aq=3:0.80
Language                                 : English
Default                                  : Yes
Forced                                   : No
Color range                              : Limited
Color primaries                          : BT.709
Matrix coefficients                      : BT.709
Audio
ID                                       : 2
Format                                   : DTS XLL
Format/Info                              : Digital Theater Systems
Commercial name                          : DTS-HD Master Audio
Codec ID                                 : A_DTS
Duration                                 : 2 h 0 min
Bit rate mode                            : Variable
Bit rate                                 : 3 387 kb/s
Channel(s)                               : 6 channels
Channel layout                           : C L R Ls Rs LFE
Sampling rate                            : 48.0 kHz
Frame rate                               : 93.750 FPS (512 SPF)
Bit depth                                : 24 bits
Compression mode                         : Lossless
Stream size                              : 2.86 GiB (18%)
Language                                 : Japanese
Default                                  : Yes
Forced                                   : No
Text #1
ID                                       : 3
Format                                   : UTF-8
Codec ID                                 : S_TEXT/UTF8
Codec ID/Info                            : UTF-8 Plain Text
Duration                                 : 1 h 54 min
Bit rate                                 : 52 b/s
Frame rate                               : 0.251 FPS
Count of elements                        : 1722
Stream size                              : 43.6 KiB (0%)
Language                                 : English
Default                                  : Yes
Forced                                   : No
Text #2
ID                                       : 4
Format                                   : ASS
Codec ID                                 : S_TEXT/ASS
Codec ID/Info                            : Advanced Sub Station Alpha
Duration                                 : 1 h 56 min
Bit rate                                 : 104 b/s
Frame rate                               : 0.255 FPS
Count of elements                        : 1788
Compression mode                         : Lossless
Stream size                              : 89.2 KiB (0%)
Language                                 : Chinese
Default                                  : No
Forced                                   : No
Text #3
ID                                       : 5
Format                                   : ASS
Codec ID                                 : S_TEXT/ASS
Codec ID/Info                            : Advanced Sub Station Alpha
Duration                                 : 1 h 56 min
Bit rate                                 : 104 b/s
Frame rate                               : 0.255 FPS
Count of elements                        : 1788
Compression mode                         : Lossless
Stream size                              : 89.2 KiB (0%)
Language                                 : Chinese
Default                                  : No
Forced                                   : No
Menu
00:00:00.000                             : CHAPTER01
00:10:53.610                             : CHAPTER02
00:20:25.390                             : CHAPTER03
00:23:34.578                             : CHAPTER04
00:34:25.480                             : CHAPTER05
00:46:45.677                             : CHAPTER06
00:54:33.936                             : CHAPTER07
01:01:17.340                             : CHAPTER08
01:04:55.432                             : CHAPTER09
01:14:23.792                             : CHAPTER10
01:20:48.009                             : CHAPTER11
01:27:43.675                             : CHAPTER12
01:32:11.817                             : CHAPTER13
01:39:43.810                             : CHAPTER14
01:46:42.979                             : CHAPTER15
01:57:27.832                             : CHAPTER16
部分资源为软字幕,移动端推荐播放器:MxPlayer,nPlayer,infuse ,其他播放器请自行尝试。
部分资源为软字幕,电脑端推荐播放器:PotPlayer,完美解码,KMPLAYER,其他播放器请自行尝试。






~~~~~~~~~~~~~~~~~~~~~~~~~~~~~~~~~~~~~~~~~
[2015][日本][剧情][BD-1080P]脑内中毒大作战[中文字幕].Poison.Berry.in.My.Brain.2015.BluRay.1080p.DTS-HD.MA.5.1.x264-Drea

【文件列表】:


Poison.Berry.in.My.Brain.2015.BluRay.1080p.DTS-HD.MA.5.1.x264-DreamHD.



【下载地址列表】:


游客
文件下载链接就在这里,在您回复评论成功后才能显示。
请勿回复无意义的灌水内容。


下拉页面到最底部回复或者【点击此处快捷回复】,回复后返回此处即可查看下载链接。
如您没注册本站会员,可以点击注册本站,注册后即可回复下载。



软字幕无法在截图上展现,HDR版本/杜比视界版本截图会出现颜色异常,请使用支持的设备播放!






[img][/img]






[img][/img]

(HDR版本/杜比视界版本,截图会出现颜色异常,请使用支持的设备播放)

小贴士:【影视自媒体解说文案请移步:夏至文案解说网 www.xiazhi.vip

上一篇:[更 早][香港][动作][BD-1080P]都市煞星[国语配音/中文字幕].Point.of.No.Return.1990.Bluray.1080p.TrueHD5.1.x264- 12.0
下一篇:[2022][欧美][惊悚][BD-1080P]不露声色[中英字幕].Poker.Face.2022.BluRay.REMUX.1080p.AVC.DTS-HD.MA5.1- 19.41GB
回复

使用道具 举报

您需要登录后才可以回帖 登录 | 立即注册

本版积分规则

Archiver|手机版|小众纪录片影视聚合

GMT+8, 2024-7-25 00:06 , Processed in 0.101059 second(s), 13 queries , Gzip On, Redis On.

Powered by 小众纪录片影视聚合 @2010-2023

Copyright © 2010-2024, https://www.xzjlp.com/.


免责说明:本站所有内容链接、图文介绍等均来自于互联网网友分享,本站仅支持web页面展示和文字介绍,绝不提供在线观看和存储服务,也不参与录制、上传、压片。若本站收录内容无意侵犯贵司版权,请发邮件到【a885185#163.com】联系本站,我们将在第一时间删除侵权内容。谢谢!

快速回复 返回顶部 返回列表