小众纪录片影视聚合

 找回密码
 立即注册
查看: 6|回复: 0

[蓝光电影] [2022][欧美][惊悚][BD-1080P]不露声色[中英字幕].Poker.Face.2022.BluRay.REMUX.1080p.AVC.DTS-HD.MA5.1- 19.41GB

[复制链接]

113万

主题

113万

帖子

113万

积分

超级版主

Rank: 8Rank: 8

积分
1134562
发表于 2024-7-9 21:06:16 | 显示全部楼层 |阅读模式


[2022][欧美][惊悚][BD-1080P]不露声色[中英字幕].Poker.Face.2022.BluRay.REMUX.1080p.AVC.DTS-HD.MA5.1- 19.41GB

完整标题:不露声色[中英字幕].Poker.Face.2022.BluRay.REMUX.1080p.AVC.DTS-HD.MA5.1-DreamHD 19.41GB
◎标  题 不露声色
◎译  名 扑克脸
◎片  名 Poker Face
◎年  代 2022
◎产  地 美国
◎类  别 惊悚
◎语  言 英语
◎上映日期 2022-10-16(罗马电影节) / 2022-11-16(美国)
◎IMDb评分 5.2/10 (11294人评价)
◎IMDb链接 https://www.imdb.com/title/tt14714980/
◎豆瓣评分 4.6/10 (638人评价)
◎豆瓣链接 https://movie.douban.com/subject/35463205/
◎片  长 90分钟
◎导  演 罗素·克劳 Russell Crowe
       加里·弗莱德 Gary Fleder
◎编  剧 罗素·克劳 Russell Crowe
◎演  员 罗素·克劳 Russell Crowe
       埃尔莎·帕塔奇 Elsa Pataky
       利亚姆·海姆斯沃斯 Liam Hemsworth
       杰奎琳·麦根斯 Jacqueline McKenzie
       罗伯特·菲茨杰拉德·迪格斯 RZA
       马特·纳夫莱 Matt Nable
       K·卡兰 K Callan
       林恩·吉尔马丁 Lynn Gilmartin
       丹尼尔·麦克弗森 Daniel MacPherson
       斯蒂夫·巴什托尼 Steve Bastoni
       本尼迪克·哈迪 Benedict Hardie
       莫莉·格雷斯 Molly Grace
       Paul Tassone Paul Tassone
       扎克·格里奇 Zack Grech
◎简  介
    罗素·克劳将主演惊悚新片[扑克脸](Poker Face,暂译)。加里·弗莱德([家园防线])执导,斯蒂芬·M·科茨操刀剧本。该片讲述杰克(克劳饰)是一个科技界的亿万富翁,他把他的童年朋友们召集到他的迈阿密豪宅,进行一场高赌注的扑克游戏。这些朋友与这位主人有一种爱恨交织的关系。杰克也是个游戏高手&策划者,他精心策划了一个计划,旨在给他们所有人带来某种正义。然而,当杰克的迈阿密豪宅被一个危险的入室抢劫者占领时,他发现自己需要重新思考他的策略。
点击图片可查看大图
软字幕无法在截图上展现,HDR版本/杜比视界版本截图会出现颜色异常,请使用支持的设备播放!
##### MediaInfo ######
General
Unique ID                                : 122042690486880706939897971201670788354 (0x5BD09134B07D8BE6EF857FD22F2A3502)
Complete name                            : Poker.Face.2022.BluRay.REMUX.1080p.AVC.DTS-HD.MA5.1-DreamHD.mkv
Duration                                 : 1 h 34 min
Overall bit rate mode                    : Variable
Overall bit rate                         : 29.3 Mb/s
Video
ID                                       : 1
Format                                   : AVC
Format/Info                              : Advanced Video Codec
Format profile                           : [email protected]
Format settings                          : CABAC / 4 Ref Frames
Format settings, CABAC                   : Yes
Format settings, Reference frames        : 4 frames
Format settings, GOP                     : M=3, N=12
Codec ID                                 : V_MPEG4/ISO/AVC
Duration                                 : 1 h 34 min
Bit rate mode                            : Variable
Bit rate                                 : 25.6 Mb/s
Maximum bit rate                         : 32.6 Mb/s
Width                                    : 1 920 pixels
Height                                   : 1 080 pixels
Display aspect ratio                     : 16:9
Frame rate mode                          : Constant
Frame rate                               : 23.976 (24000/1001) FPS
Standard                                 : NTSC
Color space                              : YUV
Chroma subsampling                       : 4:2:0
Bit depth                                : 8 bits
Scan type                                : Progressive
Bits/(Pixel*Frame)                       : 0.515
Stream size                              : 16.9 GiB (87%)
Default                                  : Yes
Forced                                   : No
Color range                              : Limited
Color primaries                          : BT.709
Transfer characteristics                 : BT.709
Matrix coefficients                      : BT.709
Audio
ID                                       : 2
Format                                   : DTS XLL
Format/Info                              : Digital Theater Systems
Commercial name                          : DTS-HD Master Audio
Codec ID                                 : A_DTS
Duration                                 : 1 h 34 min
Bit rate mode                            : Variable
Bit rate                                 : 3 652 kb/s
Channel(s)                               : 6 channels
Channel layout                           : C L R Ls Rs LFE
Sampling rate                            : 48.0 kHz
Frame rate                               : 93.750 FPS (512 SPF)
Bit depth                                : 24 bits
Compression mode                         : Lossless
Stream size                              : 2.42 GiB (12%)
Language                                 : English
Default                                  : Yes
Forced                                   : No
Text #1
ID                                       : 3
Format                                   : PGS
Muxing mode                              : zlib
Codec ID                                 : S_HDMV/PGS
Codec ID/Info                            : Picture based subtitle format used on BDs/HD-DVDs
Duration                                 : 1 h 27 min
Bit rate                                 : 62.3 kb/s
Frame rate                               : 0.435 FPS
Count of elements                        : 2294
Stream size                              : 39.2 MiB (0%)
Language                                 : English
Default                                  : Yes
Forced                                   : No
Text #2
ID                                       : 4
Format                                   : PGS
Muxing mode                              : zlib
Codec ID                                 : S_HDMV/PGS
Codec ID/Info                            : Picture based subtitle format used on BDs/HD-DVDs
Duration                                 : 1 h 26 min
Bit rate                                 : 25.9 kb/s
Frame rate                               : 0.427 FPS
Count of elements                        : 2211
Stream size                              : 16.0 MiB (0%)
Language                                 : Chinese
Default                                  : Yes
Forced                                   : No
Text #3
ID                                       : 5
Format                                   : PGS
Muxing mode                              : zlib
Codec ID                                 : S_HDMV/PGS
Codec ID/Info                            : Picture based subtitle format used on BDs/HD-DVDs
Duration                                 : 1 h 26 min
Bit rate                                 : 26.5 kb/s
Frame rate                               : 0.427 FPS
Count of elements                        : 2211
Stream size                              : 16.4 MiB (0%)
Language                                 : Chinese
Default                                  : Yes
Forced                                   : No
Text #4
ID                                       : 6
Format                                   : PGS
Muxing mode                              : zlib
Codec ID                                 : S_HDMV/PGS
Codec ID/Info                            : Picture based subtitle format used on BDs/HD-DVDs
Duration                                 : 1 h 26 min
Bit rate                                 : 44.9 kb/s
Frame rate                               : 0.427 FPS
Count of elements                        : 2211
Stream size                              : 27.7 MiB (0%)
Language                                 : Chinese
Default                                  : Yes
Forced                                   : No
Text #5
ID                                       : 7
Format                                   : PGS
Muxing mode                              : zlib
Codec ID                                 : S_HDMV/PGS
Codec ID/Info                            : Picture based subtitle format used on BDs/HD-DVDs
Duration                                 : 1 h 26 min
Bit rate                                 : 45.5 kb/s
Frame rate                               : 0.427 FPS
Count of elements                        : 2211
Stream size                              : 28.1 MiB (0%)
Language                                 : Chinese
Default                                  : Yes
Forced                                   : No
部分资源为软字幕,移动端推荐播放器:MxPlayer,nPlayer,infuse ,其他播放器请自行尝试。
部分资源为软字幕,电脑端推荐播放器:PotPlayer,完美解码,KMPLAYER,其他播放器请自行尝试。






~~~~~~~~~~~~~~~~~~~~~~~~~~~~~~~~~~~~~~~~~
[2022][欧美][惊悚][BD-1080P]不露声色[中英字幕].Poker.Face.2022.BluRay.REMUX.1080p.AVC.DTS-HD.MA5.1- 19.41GB

【文件列表】:


Poker.Face.2022.BluRay.REMUX.1080p.AVC.DTS-HD.MA5.1-DreamHD.



【下载地址列表】:


游客
文件下载链接就在这里,在您回复评论成功后才能显示。
请勿回复无意义的灌水内容。


下拉页面到最底部回复或者【点击此处快捷回复】,回复后返回此处即可查看下载链接。
如您没注册本站会员,可以点击注册本站,注册后即可回复下载。



软字幕无法在截图上展现,HDR版本/杜比视界版本截图会出现颜色异常,请使用支持的设备播放!






[img][/img]






[img][/img]

(HDR版本/杜比视界版本,截图会出现颜色异常,请使用支持的设备播放)

小贴士:【影视自媒体解说文案请移步:夏至文案解说网 www.xiazhi.vip

上一篇:[2015][日本][剧情][BD-1080P]脑内中毒大作战[中文字幕].Poison.Berry.in.My.Brain.2015.BluRay.1080p.DTS-HD.MA.5.1.x264-Drea
下一篇:[2019][其它][剧情][BD-1080P]拍栗得[中文字幕].Polaroid.2019.BluRay.1080p.DTS-HD.MA.5.1.x264- 13.52GB
回复

使用道具 举报

您需要登录后才可以回帖 登录 | 立即注册

本版积分规则

Archiver|手机版|小众纪录片影视聚合

GMT+8, 2024-7-22 06:16 , Processed in 0.158446 second(s), 14 queries , Gzip On, Redis On.

Powered by 小众纪录片影视聚合 @2010-2023

Copyright © 2010-2024, https://www.xzjlp.com/.


免责说明:本站所有内容链接、图文介绍等均来自于互联网网友分享,本站仅支持web页面展示和文字介绍,绝不提供在线观看和存储服务,也不参与录制、上传、压片。若本站收录内容无意侵犯贵司版权,请发邮件到【a885185#163.com】联系本站,我们将在第一时间删除侵权内容。谢谢!

快速回复 返回顶部 返回列表