小众纪录片影视聚合

 找回密码
 立即注册
查看: 10|回复: 0

[蓝光电影] [2023][欧美][动作][WEB-4K]敢死队4:最终章[HDR/杜比视界双版本][简繁英字幕].Expend4bles.2023.2160p.UHD.BluRay.x265.10bit.DV.Tru

[复制链接]

113万

主题

113万

帖子

113万

积分

超级版主

Rank: 8Rank: 8

积分
1134685
发表于 2024-7-9 21:07:05 | 显示全部楼层 |阅读模式


[2023][欧美][动作][WEB-4K]敢死队4:最终章[HDR/杜比视界双版本][简繁英字幕].Expend4bles.2023.2160p.UHD.BluRay.x265.10bit.DV.Tru

完整标题:敢死队4:最终章[HDR/杜比视界双版本][简繁英字幕].Expend4bles.2023.2160p.UHD.BluRay.x265.10bit.DV.TrueHD.7.1.Atmos-SONYHD 22.37GB
◎标  题 敢死队4:最终章
◎译  名 敢死队4 / 浴血任务4(台) / 轰天猛将4(港) / The Expendables 4
◎片  名 Expend4bles
◎年  代 2023
◎产  地 美国
◎类  别 动作 / 惊悚 / 战争 / 冒险
◎语  言 英语
◎上映日期 2023-09-15(中国大陆) / 2023-09-22(美国)
◎IMDb评分 4.8/10 (22704人评价)
◎IMDb链接 https://www.imdb.com/title/tt3291150/
◎豆瓣评分 4.9/10 (29711人评价)
◎豆瓣链接 https://movie.douban.com/subject/25845297/
◎片  长 103分钟 / 101分钟(中国大陆)
◎导  演 斯科特·沃 Scott Waugh
◎编  剧 科特·维莫 Kurt Wimmer
       泰德·达格哈特 Tad Daggerhart
       麦克斯·亚当斯 Max Adams
       斯宾塞·科恩 Spenser Cohen
       戴夫·卡拉汉姆 Dave Callaham
       格雷戈里·波伊莱尔 Gregory Poirier
◎演  员 杰森·斯坦森 Jason Statham
       50分 50 Cent
       梅根·福克斯 Megan Fox
       杜夫·龙格尔 Dolph Lundgren
       托尼·贾 Tony Jaa
       伊科·乌艾斯 Iko Uwais
       安迪·加西亚 Andy Garcia
       西尔维斯特·史泰龙 Sylvester Stallone
       兰迪·库卓 Randy Couture
       雅各布·西皮奥 Jacob Scipio
       丽维·陈 Levy Tran
       露西·纽曼·威廉姆斯 Lucy Newman-Williams
       达伦·诺普 Daren Nop
       肯尼·巴特拉姆 Kenny 'Cowboy' Bartram
       科迪·麦基 Cody Mackie
       柯基·法尔考 Cokey Falkow
       丹楚朋 Dan Chupong
       卡里姆·赛迪 Karim Saidi
       塞缪尔·布莱克 Samuel Black
       亚当·马斯托 Adam Masto
       妮可·安德鲁斯 Nicole Andrews
       希拉·沙赫 Sheila Shah
       迈克·莫勒 Mike Möller
       杰森· 莱恩斯 Jason Lines
       提萨·佩尔科 Tjasa Perko
◎简  介
    聚焦一群资深雇佣兵的故事。讲述了敢死小队最后一次集结,登上外海一艘满载核弹的货轮,开展一场阻止巨轮核弹爆炸的惊天行动。##### MediaInfo ######
General
Unique ID                                : 44995676527102576392882297180523505519 (0x21D9DA21DBF6991CDA035E28668EA76F)
Complete name                            : Expend4bles.2023.2160p.UHD.BluRay.x265.10bit.DV.TrueHD.7.1.Atmos-SONYHD.mkv
Duration                                 : 1 h 43 min
Overall bit rate mode                    : Variable
Overall bit rate                         : 30.9 Mb/s
Video
ID                                       : 1
Format                                   : HEVC
Format/Info                              : High Efficiency Video Coding
Format profile                           : Main [email protected]@High
HDR format                               : Dolby Vision, Version 1.0, dvhe.08.06, BL+RPU, HDR10 compatible / SMPTE ST 2086, HDR10 compatible
Codec ID                                 : V_MPEGH/ISO/HEVC
Duration                                 : 1 h 43 min
Bit rate                                 : 26.3 Mb/s
Width                                    : 3 840 pixels
Height                                   : 1 604 pixels
Display aspect ratio                     : 2.40:1
Frame rate mode                          : Constant
Frame rate                               : 23.976 (24000/1001) FPS
Color space                              : YUV
Chroma subsampling                       : 4:2:0 (Type 2)
Bit depth                                : 10 bits
Bits/(Pixel*Frame)                       : 0.178
Stream size                              : 19.0 GiB (85%)
Writing library                          : x265 3.5g2b25c9ba0+45:[Windows][MSVC 1926][64 bit] Yuuki 10bit+8bit+12bit
Encoding settings                        : rc=crf / crf=18.0800 / qcomp=0.60 / qpstep=4 / stats-write=0 / stats-read=0 / vbv-maxrate=160000 / vbv-bufsize=160000 / vbv-init=0.9 / min-vbv-fullness=50.0 / max-vbv-fullness=80.0 / crf-max=0.0 / crf-min=0.0 / no-lossless / no-cu-lossless / aq-mode=3 / aq-strength=0.70 / cbqpoffs=0 / crqpoffs=0 / ipratio=1.40 / pbratio=1.30 / psy-rd=2.00 / psy-rdoq=2.00 / deblock=-3:-3 / ref=6 / limit-refs=1 / no-limit-modes / bframes=11 / b-adapt=2 / bframe-bias=0 / b-pyramid / b-intra / weightp / weightb / min-keyint=1 / max-keyint=240 / rc-lookahead=72 / gop-lookahead=0 / scenecut=40 / hist-scenecut=0 / radl=0 / max-cu-size=64 / min-cu-size=8 / me=3 / subme=6 / merange=48 / rdoq-level=2 / rd=4 / rdpenalty=0 / dynamic-rd=0.00 / no-rd-refine / ----- / no-cutree / no-sao / no-rect / no-amp / no-open-gop / wpp / no-pmode / no-pme / no-psnr / no-ssim / nr-intra=0 / nr-inter=0 / no-constrained-intra / no-strong-intra-smoothing / max-tu-size=32 / tu-inter-depth=4 / tu-intra-depth=4 / limit-tu=0 / qg-size=32 / qpmax=69 / qpmin=0 / ----- / cpuid=1111039 / frame-threads=4 / numa-pools=+ / log-level=2 / input-csp=1 / input-res=3840x1604 / interlace=0 / level-idc=51 / high-tier=1 / uhd-bd=0 / no-allow-non-conformance / repeat-headers / aud / hrd / info / hash=0 / no-temporal-layers / lookahead-slices=0 / no-splice / no-intra-refresh / no-ssim-rd / signhide / no-tskip / max-merge=5 / temporal-mvp / no-frame-dup / no-hme / analyze-src-pics / no-sao-non-deblock / selective-sao=0 / early-skip / rskip / no-fast-intra / no-tskip-fast / no-splitrd-skip / zone-count=0 / no-strict-cbr / no-rc-grain / no-const-vbv / sar=0 / overscan=0 / videoformat=5 / range=0 / colorprim=9 / transfer=16 / colormatrix=9 / chromaloc=1 / chromaloc-top=2 / chromaloc-bottom=2 / display-window=0 / master-display=G(13250,34500)B(7500,3000)R(34000,16000)WP(15635,16450)L(40000000,50) / cll=1000,711 / min-luma=0 / max-luma=1023 / log2-max-poc-lsb=8 / vui-timing-info / vui-hrd-info / slices=1 / no-opt-qp-pps / no-opt-ref-list-length-pps / no-multi-pass-opt-rps / scenecut-bias=0.05 / hist-threshold=0.03 / no-opt-cu-delta-qp / no-aq-motion / hdr10 / hdr10-opt / no-dhdr10-opt / no-idr-recovery-sei / analysis-reuse-level=0 / analysis-save-reuse-level=0 / analysis-load-reuse-level=0 / scale-factor=0 / refine-intra=0 / refine-inter=0 / refine-mv=1 / refine-ctu-distortion=0 / no-limit-sao / ctu-info=0 / no-lowpass-dct / refine-analysis-type=0 / copy-pic=1 / max-ausize-factor=1.0 / no-dynamic-refine / no-single-sei / no-hevc-aq / no-svt / no-field / qp-adaptation-range=1.00 / scenecut-aware-qp=0conformance-window-offsets / right=0 / bottom=0 / decoder-max-rate=0 / no-vbv-live-multi-pass
Default                                  : Yes
Forced                                   : No
Color range                              : Limited
Color primaries                          : BT.2020
Transfer characteristics                 : PQ
Matrix coefficients                      : BT.2020 non-constant
Mastering display color primaries        : Display P3
Mastering display luminance              : min: 0.0050 cd/m2, max: 4000 cd/m2
Maximum Content Light Level              : 1000 cd/m2
Maximum Frame-Average Light Level        : 711 cd/m2
Audio
ID                                       : 2
ID in the original source medium         : 4352 (0x1100)
Format                                   : MLP FBA 16-ch
Format/Info                              : Meridian Lossless Packing FBA with 16-channel presentation
Commercial name                          : Dolby TrueHD with Dolby Atmos
Codec ID                                 : A_TRUEHD
Duration                                 : 1 h 43 min
Bit rate mode                            : Variable
Bit rate                                 : 4 499 kb/s
Maximum bit rate                         : 7 071 kb/s
Channel(s)                               : 8 channels
Channel layout                           : L R C LFE Ls Rs Lb Rb
Sampling rate                            : 48.0 kHz
Frame rate                               : 1 200.000 FPS (40 SPF)
Compression mode                         : Lossless
Stream size                              : 3.25 GiB (15%)
Title                                    : English
Language                                 : English
Default                                  : Yes
Forced                                   : No
Original source medium                   : Blu-ray
Number of dynamic objects                : 11
Bed channel count                        : 1 channel
Bed channel configuration                : LFE
Text #1
ID                                       : 3
ID in the original source medium         : 4771 (0x12A3)
Format                                   : PGS
Muxing mode                              : zlib
Codec ID                                 : S_HDMV/PGS
Codec ID/Info                            : Picture based subtitle format used on BDs/HD-DVDs
Duration                                 : 1 h 34 min
Bit rate                                 : 40.5 kb/s
Frame rate                               : 0.327 FPS
Count of elements                        : 1853
Stream size                              : 27.3 MiB (0%)
Title                                    : chs&eng
Language                                 : Chinese
Default                                  : Yes
Forced                                   : No
Original source medium                   : Blu-ray
Text #2
ID                                       : 4
ID in the original source medium         : 4772 (0x12A4)
Format                                   : PGS
Muxing mode                              : zlib
Codec ID                                 : S_HDMV/PGS
Codec ID/Info                            : Picture based subtitle format used on BDs/HD-DVDs
Duration                                 : 1 h 34 min
Bit rate                                 : 40.7 kb/s
Frame rate                               : 0.327 FPS
Count of elements                        : 1853
Stream size                              : 27.5 MiB (0%)
Title                                    : cht&eng
Language                                 : Chinese
Default                                  : No
Forced                                   : No
Original source medium                   : Blu-ray
Text #3
ID                                       : 5
ID in the original source medium         : 4773 (0x12A5)
Format                                   : PGS
Muxing mode                              : zlib
Codec ID                                 : S_HDMV/PGS
Codec ID/Info                            : Picture based subtitle format used on BDs/HD-DVDs
Duration                                 : 1 h 34 min
Bit rate                                 : 22.9 kb/s
Frame rate                               : 0.327 FPS
Count of elements                        : 1853
Stream size                              : 15.5 MiB (0%)
Title                                    : chs
Language                                 : Chinese
Default                                  : No
Forced                                   : No
Original source medium                   : Blu-ray
Text #4
ID                                       : 6
ID in the original source medium         : 4774 (0x12A6)
Format                                   : PGS
Muxing mode                              : zlib
Codec ID                                 : S_HDMV/PGS
Codec ID/Info                            : Picture based subtitle format used on BDs/HD-DVDs
Duration                                 : 1 h 34 min
Bit rate                                 : 23.2 kb/s
Frame rate                               : 0.327 FPS
Count of elements                        : 1853
Stream size                              : 15.7 MiB (0%)
Title                                    : cht
Language                                 : Chinese
Default                                  : No
Forced                                   : No
Original source medium                   : Blu-ray
Text #5
ID                                       : 7
ID in the original source medium         : 4768 (0x12A0)
Format                                   : PGS
Muxing mode                              : zlib
Codec ID                                 : S_HDMV/PGS
Codec ID/Info                            : Picture based subtitle format used on BDs/HD-DVDs
Duration                                 : 1 h 42 min
Bit rate                                 : 32.6 kb/s
Frame rate                               : 0.429 FPS
Count of elements                        : 2644
Stream size                              : 24.0 MiB (0%)
Title                                    : eng
Language                                 : English
Default                                  : No
Forced                                   : No
Original source medium                   : Blu-ray
Menu
00:00:00.000                             : en:Chapter 01
00:10:00.000                             : en:Chapter 02
00:20:00.000                             : en:Chapter 03
00:30:00.000                             : en:Chapter 04
00:40:00.000                             : en:Chapter 05
00:50:00.000                             : en:Chapter 06
01:00:00.000                             : en:Chapter 07
01:10:00.000                             : en:Chapter 08
01:20:00.000                             : en:Chapter 09
01:30:00.000                             : en:Chapter 10
01:40:00.000                             : en:Chapter 11
部分资源为软字幕,移动端推荐播放器:MxPlayer,nPlayer,infuse ,其他播放器请自行尝试。
部分资源为软字幕,电脑端推荐播放器:PotPlayer,完美解码,KMPLAYER,其他播放器请自行尝试。






~~~~~~~~~~~~~~~~~~~~~~~~~~~~~~~~~~~~~~~~~
[2023][欧美][动作][WEB-4K]敢死队4:最终章[HDR/杜比视界双版本][简繁英字幕].Expend4bles.2023.2160p.UHD.BluRay.x265.10bit.DV.Tru

【文件列表】:


Expend4bles.2023.2160p.UHD.BluRay.x265.10bit.DV.TrueHD.7.1.Atmos-SONYHD.



【下载地址列表】:


游客
文件下载链接就在这里,在您回复评论成功后才能显示。
请勿回复无意义的灌水内容。


下拉页面到最底部回复或者【点击此处快捷回复】,回复后返回此处即可查看下载链接。
如您没注册本站会员,可以点击注册本站,注册后即可回复下载。



软字幕无法在截图上展现,HDR版本/杜比视界版本截图会出现颜色异常,请使用支持的设备播放!






[img][/img]






[img][/img]

(HDR版本/杜比视界版本,截图会出现颜色异常,请使用支持的设备播放)

小贴士:【影视自媒体解说文案请移步:夏至文案解说网 www.xiazhi.vip

上一篇:[2021][香港][剧情][BD-1080P]遗爱[国粤语配音/中文字幕].Elisa's.Day.2021.BluRay.1080p.x265.10bit.TrueHD.5.1-NukeHD 9.23GB
下一篇:[更 早][其它][剧情][BD-1080P]祖与占[简繁英字幕].Jules.and.Jim.1962.CC.1080p.BluRay.x264.FLAC.1.0- 9.09GB
回复

使用道具 举报

您需要登录后才可以回帖 登录 | 立即注册

本版积分规则

Archiver|手机版|小众纪录片影视聚合

GMT+8, 2024-7-22 06:42 , Processed in 0.102915 second(s), 13 queries , Gzip On, Redis On.

Powered by 小众纪录片影视聚合 @2010-2023

Copyright © 2010-2024, https://www.xzjlp.com/.


免责说明:本站所有内容链接、图文介绍等均来自于互联网网友分享,本站仅支持web页面展示和文字介绍,绝不提供在线观看和存储服务,也不参与录制、上传、压片。若本站收录内容无意侵犯贵司版权,请发邮件到【a885185#163.com】联系本站,我们将在第一时间删除侵权内容。谢谢!

快速回复 返回顶部 返回列表