小众纪录片影视聚合

 找回密码
 立即注册
查看: 4|回复: 0

[蓝光电影] [更 早][其它][剧情][BD-1080P]祖与占[简繁英字幕].Jules.and.Jim.1962.CC.1080p.BluRay.x264.FLAC.1.0- 9.09GB

[复制链接]

112万

主题

112万

帖子

112万

积分

超级版主

Rank: 8Rank: 8

积分
1128817
发表于 2024-7-9 21:07:10 | 显示全部楼层 |阅读模式


[更 早][其它][剧情][BD-1080P]祖与占[简繁英字幕].Jules.and.Jim.1962.CC.1080p.BluRay.x264.FLAC.1.0- 9.09GB

完整标题:祖与占[简繁英字幕].Jules.and.Jim.1962.CC.1080p.BluRay.x264.FLAC.1.0-SONYHD 9.09GB
◎标  题 祖与占
◎译  名 朱尔与吉姆 / 朱尔和吉姆 / 夏日之恋(台) / Jules and Jim
◎片  名 Jules et Jim
◎年  代 1962
◎产  地 法国
◎类  别 剧情 / 爱情
◎语  言 法语 / 德语 / 英语
◎上映日期 1962-01-23(法国)
◎IMDb评分 7.7/10 (43372人评价)
◎IMDb链接 https://www.imdb.com/title/tt0055032/
◎豆瓣评分 8.4/10 (50910人评价)
◎豆瓣链接 https://movie.douban.com/subject/1292338/
◎片  长 105分钟
◎导  演 弗朗索瓦·特吕弗 François Truffaut
◎编  剧 弗朗索瓦·特吕弗 François Truffaut
       让·格吕约尔 Jean Gruault
       昂利-皮埃尔·罗歇 Henri-Pierre Roché
◎演  员 让娜·莫罗 Jeanne Moreau
       奥斯卡·威内尔 Oskar Werner
       亨利·赛尔 Henri Serre
       万娜·乌尔比诺 Vanna Urbino
       阿妮·内尔森 Anny Nelsen
       萨比娜·奥德潘 Sabine Haudepin
       玛丽·杜布瓦 Marie Dubois
       米歇尔·索博 Michel Subor
       弗朗索瓦·朵列 Françoise Dorléac
◎简  介
    一战前,德国人祖(奥斯卡·威内尔 Oskar Werner 饰)和法国人占(亨利·赛尔 Henri Serre饰)在巴黎结识。他们意趣相投,对诗歌和小说都有强烈而共同的兴趣,甚至二人为着同一个雕塑也着迷。顺理成章地,祖与占都爱上了同一个女子:聪明貌美的凯瑟琳(让娜·莫罗 Jeanne Moreau饰)。                                    在这样的关系中,占选择了成全温柔单纯的祖。他们一起到乡间度假,度过了美妙时光。然而一战的爆发,却让他们失去了联系,在自己国家服役期间,他们多么担心会在战场上杀死自己的好友。而祖,从不间断地给妻子凯瑟琳写信。                                    战争结束,祖与占再次相遇,占觉察到祖和凯瑟琳的关系很糟糕——她对婚姻以外的感情从没停止过追逐,喜欢在各种爱情关系中享受自由。占在祖家中住下,凯瑟琳毫不掩饰对占的爱,这段三角关系平衡而快乐的维系着,旁人完全看不透。当占要离去时,凯瑟琳直率锐利的性格让事情起了变化……##### MediaInfo ######
General
Unique ID                                : 282840839898450882837724071102596164084 (0xD4C92A0FEEA56E60DA783272BD92A9F4)
Complete name                            : Jules.and.Jim.1962.CC.1080p.BluRay.x264.FLAC.1.0-SONYHD.mkv
Duration                                 : 1 h 46 min
Overall bit rate mode                    : Variable
Overall bit rate                         : 12.2 Mb/s
Video
ID                                       : 1
Format                                   : AVC
Format/Info                              : Advanced Video Codec
Format profile                           : [email protected]
Format settings                          : CABAC / 4 Ref Frames
Format settings, CABAC                   : Yes
Format settings, Reference frames        : 4 frames
Codec ID                                 : V_MPEG4/ISO/AVC
Duration                                 : 1 h 46 min
Bit rate                                 : 11.9 Mb/s
Width                                    : 1 920 pixels
Height                                   : 804 pixels
Display aspect ratio                     : 2.40:1
Frame rate mode                          : Constant
Frame rate                               : 23.976 (24000/1001) FPS
Color space                              : YUV
Chroma subsampling                       : 4:2:0
Bit depth                                : 8 bits
Scan type                                : Progressive
Bits/(Pixel*Frame)                       : 0.320
Stream size                              : 8.82 GiB (97%)
Writing library                          : x264 core 164 r3107+55M 1028c06 t_mod_New [(8 & 10)-bit@all X86_64]
Encoding settings                        : cabac=1 / ref=4 / deblock=1:-3:-3 / analyse=0x3:0x133 / me=umh / subme=11 / psy=1 / fade_compensate=0.00 / psy_rd=1.00:0.00 / mixed_ref=1 / me_range=48 / chroma_me=1 / trellis=2 / 8x8dct=1 / cqm=0 / deadzone=21,11 / fast_pskip=0 / chroma_qp_offset=-3 / threads=25 / lookahead_threads=6 / sliced_threads=0 / nr=0 / decimate=0 / interlaced=0 / bluray_compat=0 / constrained_intra=0 / fgo=0 / bframes=10 / b_pyramid=2 / b_adapt=2 / b_bias=0 / direct=3 / weightb=1 / open_gop=0 / weightp=2 / keyint=240 / keyint_min=1 / scenecut=40 / intra_refresh=0 / rc_lookahead=72 / rc=crf / mbtree=0 / crf=22.5000 / qcomp=0.65 / qpmin=0:0:0 / qpmax=69:69:69 / qpstep=4 / vbv_maxrate=62500 / vbv_bufsize=78125 / crf_max=0.0 / nal_hrd=none / filler=0 / ip_ratio=1.40 / pb_ratio=1.30 / aq=3:0.80 / aq-sensitivity=10.00 / aq-factor=1.00:1.00:1.00 / aq2=0 / aq3=0
Default                                  : Yes
Forced                                   : No
Audio
ID                                       : 2
Format                                   : FLAC
Format/Info                              : Free Lossless Audio Codec
Codec ID                                 : A_FLAC
Duration                                 : 1 h 46 min
Bit rate mode                            : Variable
Bit rate                                 : 280 kb/s
Channel(s)                               : 1 channel
Channel layout                           : C
Sampling rate                            : 48.0 kHz
Frame rate                               : 11.719 FPS (4096 SPF)
Bit depth                                : 16 bits
Compression mode                         : Lossless
Stream size                              : 213 MiB (2%)
Title                                    : French
Writing library                          : libFLAC 1.2.1 (UTC 2007-09-17)
Language                                 : French
Default                                  : Yes
Forced                                   : No
Text #1
ID                                       : 3
ID in the original source medium         : 4610 (0x1202)
Format                                   : PGS
Muxing mode                              : zlib
Codec ID                                 : S_HDMV/PGS
Codec ID/Info                            : Picture based subtitle format used on BDs/HD-DVDs
Duration                                 : 1 h 45 min
Bit rate                                 : 51.0 kb/s
Frame rate                               : 0.418 FPS
Count of elements                        : 2661
Stream size                              : 38.7 MiB (0%)
Title                                    : chs&eng
Language                                 : Chinese
Default                                  : Yes
Forced                                   : No
Original source medium                   : Blu-ray
Text #2
ID                                       : 4
ID in the original source medium         : 4611 (0x1203)
Format                                   : PGS
Muxing mode                              : zlib
Codec ID                                 : S_HDMV/PGS
Codec ID/Info                            : Picture based subtitle format used on BDs/HD-DVDs
Duration                                 : 1 h 45 min
Bit rate                                 : 51.3 kb/s
Frame rate                               : 0.418 FPS
Count of elements                        : 2661
Stream size                              : 38.9 MiB (0%)
Title                                    : cht&eng
Language                                 : Chinese
Default                                  : No
Forced                                   : No
Original source medium                   : Blu-ray
Text #3
ID                                       : 5
ID in the original source medium         : 4612 (0x1204)
Format                                   : PGS
Muxing mode                              : zlib
Codec ID                                 : S_HDMV/PGS
Codec ID/Info                            : Picture based subtitle format used on BDs/HD-DVDs
Duration                                 : 1 h 45 min
Bit rate                                 : 26.4 kb/s
Frame rate                               : 0.418 FPS
Count of elements                        : 2661
Stream size                              : 20.0 MiB (0%)
Title                                    : chs
Language                                 : Chinese
Default                                  : No
Forced                                   : No
Original source medium                   : Blu-ray
Text #4
ID                                       : 6
ID in the original source medium         : 4613 (0x1205)
Format                                   : PGS
Muxing mode                              : zlib
Codec ID                                 : S_HDMV/PGS
Codec ID/Info                            : Picture based subtitle format used on BDs/HD-DVDs
Duration                                 : 1 h 45 min
Bit rate                                 : 26.7 kb/s
Frame rate                               : 0.418 FPS
Count of elements                        : 2661
Stream size                              : 20.2 MiB (0%)
Title                                    : cht
Language                                 : Chinese
Default                                  : No
Forced                                   : No
Original source medium                   : Blu-ray
Text #5
ID                                       : 7
ID in the original source medium         : 4608 (0x1200)
Format                                   : PGS
Muxing mode                              : zlib
Codec ID                                 : S_HDMV/PGS
Codec ID/Info                            : Picture based subtitle format used on BDs/HD-DVDs
Duration                                 : 1 h 45 min
Bit rate                                 : 58.1 kb/s
Frame rate                               : 0.420 FPS
Count of elements                        : 2656
Stream size                              : 43.8 MiB (0%)
Title                                    : eng
Language                                 : English
Default                                  : No
Forced                                   : No
Original source medium                   : Blu-ray
Menu
00:00:00.000                             : en:Chapter 01
00:02:45.748                             : en:Chapter 02
00:07:38.749                             : en:Chapter 03
00:11:21.931                             : en:Chapter 04
00:12:28.831                             : en:Chapter 05
00:15:43.859                             : en:Chapter 06
00:18:23.435                             : en:Chapter 07
00:21:49.099                             : en:Chapter 08
00:23:29.574                             : en:Chapter 09
00:25:12.594                             : en:Chapter 10
00:29:36.483                             : en:Chapter 11
00:32:54.138                             : en:Chapter 12
00:37:41.842                             : en:Chapter 13
00:45:43.365                             : en:Chapter 14
00:48:42.377                             : en:Chapter 15
00:56:10.075                             : en:Chapter 16
00:59:38.866                             : en:Chapter 17
01:02:07.181                             : en:Chapter 18
01:06:21.978                             : en:Chapter 19
01:10:53.457                             : en:Chapter 20
01:14:36.138                             : en:Chapter 21
01:16:00.556                             : en:Chapter 22
01:19:15.333                             : en:Chapter 23
01:25:54.732                             : en:Chapter 24
01:28:31.681                             : en:Chapter 25
01:32:05.978                             : en:Chapter 26
01:37:25.005                             : en:Chapter 27
01:41:27.081                             : en:Chapter 28
部分资源为软字幕,移动端推荐播放器:MxPlayer,nPlayer,infuse ,其他播放器请自行尝试。
部分资源为软字幕,电脑端推荐播放器:PotPlayer,完美解码,KMPLAYER,其他播放器请自行尝试。






~~~~~~~~~~~~~~~~~~~~~~~~~~~~~~~~~~~~~~~~~
[更 早][其它][剧情][BD-1080P]祖与占[简繁英字幕].Jules.and.Jim.1962.CC.1080p.BluRay.x264.FLAC.1.0- 9.09GB

【文件列表】:


Jules.and.Jim.1962.CC.1080p.BluRay.x264.FLAC.1.0-SONYHD.



【下载地址列表】:


游客
文件下载链接就在这里,在您回复评论成功后才能显示。
请勿回复无意义的灌水内容。


下拉页面到最底部回复或者【点击此处快捷回复】,回复后返回此处即可查看下载链接。
如您没注册本站会员,可以点击注册本站,注册后即可回复下载。



软字幕无法在截图上展现,HDR版本/杜比视界版本截图会出现颜色异常,请使用支持的设备播放!






[img][/img]






[img][/img]

(HDR版本/杜比视界版本,截图会出现颜色异常,请使用支持的设备播放)

小贴士:【影视自媒体解说文案请移步:夏至文案解说网 www.xiazhi.vip

上一篇:[2023][欧美][动作][WEB-4K]敢死队4:最终章[HDR/杜比视界双版本][简繁英字幕].Expend4bles.2023.2160p.UHD.BluRay.x265.10bit.DV.Tru
下一篇:[更 早][其它][剧情][BD-1080P]祖与占[简繁英字幕].Jules.and.Jim.1962.CC.1080p.BluRay.x265.10bit.FLAC.1.0- 6.10GB
回复

使用道具 举报

您需要登录后才可以回帖 登录 | 立即注册

本版积分规则

Archiver|手机版|小众纪录片影视聚合

GMT+8, 2024-7-17 00:44 , Processed in 0.249426 second(s), 13 queries , Gzip On, Redis On.

Powered by 小众纪录片影视聚合 @2010-2023

Copyright © 2010-2024, https://www.xzjlp.com/.


免责说明:本站所有内容链接、图文介绍等均来自于互联网网友分享,本站仅支持web页面展示和文字介绍,绝不提供在线观看和存储服务,也不参与录制、上传、压片。若本站收录内容无意侵犯贵司版权,请发邮件到【a885185#163.com】联系本站,我们将在第一时间删除侵权内容。谢谢!

快速回复 返回顶部 返回列表