小众纪录片影视聚合

 找回密码
 立即注册
查看: 5|回复: 0

[蓝光电影] [2023][欧美][剧情][BD-1080P]AI创世者[中文字幕].The.Creator.2023.1080p.BluRay.x265.10bit.DTS- 7.95GB

[复制链接]

116万

主题

116万

帖子

116万

积分

超级版主

Rank: 8Rank: 8

积分
1167997
发表于 2024-7-9 21:07:48 | 显示全部楼层 |阅读模式


[2023][欧美][剧情][BD-1080P]AI创世者[中文字幕].The.Creator.2023.1080p.BluRay.x265.10bit.DTS- 7.95GB

完整标题:AI创世者[中文字幕].The.Creator.2023.1080p.BluRay.x265.10bit.DTS-CTRLHD 7.95GB
◎标  题 AI创世者
◎译  名 A.I.创世者(台) / 造物主 / 真爱 / True Love
◎片  名 The Creator
◎年  代 2023
◎产  地 美国
◎类  别 剧情 / 动作 / 科幻 / 惊悚
◎语  言 英语
◎上映日期 2023-09-26(奇幻电影节) / 2023-09-29(美国)
◎IMDb评分 7.1/10 (49441人评价)
◎IMDb链接 https://www.imdb.com/title/tt11858890/
◎豆瓣评分 6.5/10 (1778人评价)
◎豆瓣链接 https://movie.douban.com/subject/35453476/
◎片  长 135分钟
◎导  演 加里斯·爱德华斯 Gareth Edwards
◎编  剧 加里斯·爱德华斯 Gareth Edwards
◎演  员 约翰·大卫·华盛顿 John David Washington
       马德琳·尤娜·沃伊尔斯 Madeleine Yuna Voyles
       嘉玛·陈 Gemma Chan
       艾莉森·珍妮 Allison Janney
       渡边谦 Ken Watanabe
       斯特吉尔·辛普森 Sturgill Simpson
       阿默·查达·帕特尔 Amer Chadha-Patel
       马克·门查卡 Marc Menchaca
       罗比·坦恩 Robbie Tann
       拉尔夫·伊内森 Ralph Ineson
       迈克尔·埃斯佩尔 Michael Esper
       吴青芸 Thanh Van Ngo
       伊恩·凡尔登 Ian Verdun
       丹尼尔·罗德里戈兹 Daniel Rodriguez
       莱德·佩瑞拉 Rad Pereira
       西德·斯基德莫尔 Syd Skidmore
       凯伦·奥尔德里奇 Karen Aldridge
       提拉瓦特·穆维莱 Teerawat Mulvilai
       莉安娜·谢 Leanna Chea
       萨哈查·楚姆鲁姆 Sahatchai 'Stop' Chumrum
       麦肯齐·兰辛 Mackenzie Lansing
       约恩·奥布赖恩 Eoin O'Brien
       杰布·克里格 Jeb Kreager
       润·威弗 Ron Weaver
       黛莉娜·班楚 Darina Bunchu
       查利·麦克尔文 Charlie McElveen
       布雷特·巴塞洛缪 Brett Bartholomew
       帕特·斯克尔顿 Pat Skelton
       埃利奥特·伯克 Elliot Berk
       阿尔特·伊瓦拉 Art Ybarra
◎简  介
    在人类与AI如火如荼的未来战争中,精明干练的前特种部队探员约书亚(约翰·大卫·华盛顿 John David Washington 饰),在摆脱不了妻子失踪已久的悲伤之际,又被招募执行刺杀“AI创世者”的关键任务,势在阻止AI歼灭人类并终结战争的秘密武器。约书亚带领菁英小组深入AI领域的危险中心,却发现他必须摧毁的终极致命武器,竟是个拥有纯真孩童外表的AI……
点击图片可查看大图
软字幕无法在截图上展现,HDR版本/杜比视界版本截图会出现颜色异常,请使用支持的设备播放!
##### MediaInfo ######
General
Unique ID                                : 290154349450940916234503170533386477499 (0xDA49B1EC2FDA8E698141973EF9D9DFBB)
Complete name                            : The.Creator.2023.1080p.BluRay.x265.10bit.DTS-CTRLHD.mkv
Duration                                 : 2 h 13 min
Overall bit rate                         : 8 520 kb/s
Video
ID                                       : 1
Format                                   : HEVC
Format/Info                              : High Efficiency Video Coding
Format profile                           : Main 10@L4@Main
Codec ID                                 : V_MPEGH/ISO/HEVC
Duration                                 : 2 h 13 min
Bit rate                                 : 7 009 kb/s
Width                                    : 1 920 pixels
Height                                   : 696 pixels
Display aspect ratio                     : 2.759
Frame rate mode                          : Constant
Frame rate                               : 23.976 (24000/1001) FPS
Color space                              : YUV
Chroma subsampling                       : 4:2:0
Bit depth                                : 10 bits
Bits/(Pixel*Frame)                       : 0.219
Stream size                              : 6.54 GiB (82%)
Default                                  : Yes
Forced                                   : No
Audio
ID                                       : 2
Format                                   : DTS
Format/Info                              : Digital Theater Systems
Codec ID                                 : A_DTS
Duration                                 : 2 h 13 min
Bit rate mode                            : Constant
Bit rate                                 : 1 509 kb/s
Channel(s)                               : 6 channels
Channel layout                           : C L R Ls Rs LFE
Sampling rate                            : 48.0 kHz
Frame rate                               : 93.750 FPS (512 SPF)
Bit depth                                : 24 bits
Compression mode                         : Lossy
Stream size                              : 1.41 GiB (18%)
Language                                 : English
Default                                  : Yes
Forced                                   : No
Text
ID                                       : 3
Format                                   : UTF-8
Codec ID                                 : S_TEXT/UTF8
Codec ID/Info                            : UTF-8 Plain Text
Duration                                 : 2 h 2 min
Bit rate                                 : 31 b/s
Frame rate                               : 0.194 FPS
Count of elements                        : 1422
Stream size                              : 28.1 KiB (0%)
Language                                 : Chinese
Default                                  : Yes
Forced                                   : No
部分资源为软字幕,移动端推荐播放器:MxPlayer,nPlayer,infuse ,其他播放器请自行尝试。
部分资源为软字幕,电脑端推荐播放器:PotPlayer,完美解码,KMPLAYER,其他播放器请自行尝试。






~~~~~~~~~~~~~~~~~~~~~~~~~~~~~~~~~~~~~~~~~
[2023][欧美][剧情][BD-1080P]AI创世者[中文字幕].The.Creator.2023.1080p.BluRay.x265.10bit.DTS- 7.95GB

【文件列表】:


The.Creator.2023.1080p.BluRay.x265.10bit.DTS-CTRLHD.



【下载地址列表】:


游客
文件下载链接就在这里,在您回复评论成功后才能显示。
请勿回复无意义的灌水内容。


下拉页面到最底部回复或者【点击此处快捷回复】,回复后返回此处即可查看下载链接。
如您没注册本站会员,可以点击注册本站,注册后即可回复下载。



软字幕无法在截图上展现,HDR版本/杜比视界版本截图会出现颜色异常,请使用支持的设备播放!






[img][/img]






[img][/img]

(HDR版本/杜比视界版本,截图会出现颜色异常,请使用支持的设备播放)

小贴士:【影视自媒体解说文案请移步:夏至文案解说网 www.xiazhi.vip

上一篇:[2023][欧美][剧情][BD-1080P]AI创世者[中文字幕].The.Creator.2023.1080p.BluRay.x264.DTS- 13.98GB
下一篇:[2008][欧美][动作][BD-4K]无敌浩克[国英多音轨/简繁英字幕].The.Incredible.Hulk.2008.BluRay.2160p.HEVC.Atmos.TrueHD_7.1-Nu
回复

使用道具 举报

您需要登录后才可以回帖 登录 | 立即注册

本版积分规则

Archiver|手机版|小众纪录片影视聚合

GMT+8, 2024-7-25 02:23 , Processed in 0.072040 second(s), 13 queries , Gzip On, Redis On.

Powered by 小众纪录片影视聚合 @2010-2023

Copyright © 2010-2024, https://www.xzjlp.com/.


免责说明:本站所有内容链接、图文介绍等均来自于互联网网友分享,本站仅支持web页面展示和文字介绍,绝不提供在线观看和存储服务,也不参与录制、上传、压片。若本站收录内容无意侵犯贵司版权,请发邮件到【a885185#163.com】联系本站,我们将在第一时间删除侵权内容。谢谢!

快速回复 返回顶部 返回列表