小众纪录片影视聚合

 找回密码
 立即注册
查看: 4|回复: 0

[蓝光电影] [2008][欧美][动作][BD-4K]无敌浩克[国英多音轨/简繁英字幕].The.Incredible.Hulk.2008.BluRay.2160p.HEVC.Atmos.TrueHD_7.1-Nu

[复制链接]

116万

主题

116万

帖子

116万

积分

超级版主

Rank: 8Rank: 8

积分
1167997
发表于 2024-7-9 21:07:53 | 显示全部楼层 |阅读模式


[2008][欧美][动作][BD-4K]无敌浩克[国英多音轨/简繁英字幕].The.Incredible.Hulk.2008.BluRay.2160p.HEVC.Atmos.TrueHD_7.1-Nu

完整标题:无敌浩克[国英多音轨/简繁英字幕].The.Incredible.Hulk.2008.BluRay.2160p.HEVC.Atmos.TrueHD_7.1-NukeHD 24.94GB
◎标  题 无敌浩克
◎译  名 新变形侠医(港) / 神奇绿巨人 / 绿巨人2 / 不可思议的绿巨人 / Hulk 2
◎片  名 The Incredible Hulk
◎年  代 2008
◎产  地 美国
◎类  别 动作 / 科幻 / 惊悚
◎语  言 英语 / 葡萄牙语 / 西班牙语
◎上映日期 2008-08-20(中国大陆) / 2008-06-13(美国)
◎IMDb评分 6.6/10 (505703人评价)
◎IMDb链接 https://www.imdb.com/title/tt0800080/
◎豆瓣评分 7.1/10 (227492人评价)
◎豆瓣链接 https://movie.douban.com/subject/1866475/
◎片  长 112 分钟
◎导  演 路易斯·莱特里尔 Louis Leterrier
◎编  剧 扎克·佩恩 Zak Penn
       斯坦·李 Stan Lee
       杰克·科比 Jack Kirby
◎演  员 爱德华·诺顿 Edward Norton
       丽芙·泰勒 Liv Tyler
       蒂姆·罗斯 Tim Roth
       威廉·赫特 William Hurt
       蒂姆·布雷克·尼尔森 Tim Blake Nelson
       泰·布利尔 Ty Burrell
       克里斯蒂娜·卡伯特 Christina Cabot
       彼得·门萨 Peter Mensah
       卢·弗里基诺 Lou Ferrigno
       保罗·索尔斯 Paul Soles
       黛博拉·纳斯克蒙多 Débora Nascimento
       格雷格·布瑞克 Greg Bryk
       克里斯·欧文斯 Chris Owens
       阿尔·维克尔詹 Al Vrkljan
       阿德里安·海因 Adrian Hein
       约翰·麦克唐纳 John MacDonald
       西蒙·王 Simon Wong
       格兰特·尼克尔斯 Grant Nickalls
       乔利斯·贾斯基 Joris Jarsky
       阿诺德·平诺克 Arnold Pinnock
       马克斯韦尔·麦卡比-洛克斯 Maxwell McCabe-Lokos
       大卫·柯林斯 David Collins
       罗宾·威尔科克 Robin Wilcock
       韦恩·罗布森 Wayne Robson
       马丁·斯塔尔 Martin Starr
       克里斯·拉茨 Chris Ratz
       迈克尔·肯尼斯·威廉姆斯 Michael Kenneth Williams
       罗伯托·巴克 Roberto Bakker
       瑞克森·格雷西 Rickson Gracie
       尼古拉斯·罗斯 Nicholas Rose
       盖内尔·威廉姆斯 Genelle Williams
       托尼·纳波 Tony Nappo
       大卫·梅尼尔 David Meunier
       特雷·史密斯 Tre Smith
       罗伯特·莫尔斯 Robert Morse
       比尔·贝克比 Bill Bixby
       JB·布兰科 JB Blanc
       布兰登·克鲁兹 Brandon Cruz
       小罗伯特·唐尼 Robert Downey Jr.
       J·D·霍尔 J.D. Hall
       杰·亨特 Jay Hunter
       布拉德·雅各布维茨 Brad Jacobowitz
       斯坦·李 Stan Lee
       乔纳森·利波 Jonathan Lipow
       迪尔·麦克唐纳 Dl MacDonald
       大卫·L·马斯顿 David L. Marston
       伊斯汗·莫里斯 Ishan Morris
       比利·帕罗特 Billy Parrott
       克里斯蒂娜·佩希奇 Kristina Pesic
       阿维·菲利普斯 Avi Phillips
       罗素·袁 Russell Yuen
       马克斯·托普林 Max Topplin
       迪伦·泰勒 Dylan Taylor
       托尼·托德 Tony Todd
       姜广涛 Guangtao Jiang
◎简  介
    在高华大学变异的经历总在重演,关于军方通缉的亦围绕在脑海,科学家Bruce Banner(爱德华·诺顿 Edward Norton 饰)就在这样的梦魇下在巴西一边控制着体内的伽马辐射带来的异常,一边努力和纽约的蓝先生寻求解决办法。                                    在汽水生产厂房的他一日不小心割伤手指,让血滴入了汽水瓶,远销到美国的这瓶汽水暴露了他的行踪。美国军方穷尽能力追捕他,还找来求胜心切的英国霹雳将军Emil Blonsky(蒂姆·罗斯 Tim Roth 饰)。被逼到绝路的Bruce变身为绿巨人,Emil和其他军人都大吃一惊。为了亲手擒住Bruce,Emil建议给自己注入可使基因变异的样本。                                    Bruce在美国隐匿时遇到旧女友Betty Ross(丽芙·泰勒 Liv Tyler 饰),Betty义无反顾地站在他一边,同时发现,她拥有令他体内绿巨人安稳的力量。                                    那边Emil已经被求胜蒙蔽了眼睛,他的寻衅加上美国军方极度想利用Bruce体内异能作为残暴行径的决心,一场大战已经避无可避。##### MediaInfo ######
General
Unique ID                                : 296896965353901487618438151335164034626 (0xDF5C468D8B0F447DA182B744C918BE42)
Complete name                            : The.Incredible.Hulk.2008.BluRay.2160p.HEVC.Atmos.TrueHD_7.1-NukeHD.mkv
Duration                                 : 1 h 52 min
Overall bit rate mode                    : Variable
Overall bit rate                         : 31.8 Mb/s
Video
ID                                       : 1
Format                                   : HEVC
Format/Info                              : High Efficiency Video Coding
Format profile                           : Main [email protected]@Main
HDR format                               : SMPTE ST 2086, HDR10 compatible
Codec ID                                 : V_MPEGH/ISO/HEVC
Duration                                 : 1 h 52 min
Bit rate                                 : 22.0 Mb/s
Width                                    : 3 840 pixels
Height                                   : 1 644 pixels
Display aspect ratio                     : 2.35:1
Frame rate mode                          : Constant
Frame rate                               : 23.976 (24000/1001) FPS
Color space                              : YUV
Chroma subsampling                       : 4:2:0
Bit depth                                : 10 bits
Bits/(Pixel*Frame)                       : 0.146
Stream size                              : 17.3 GiB (69%)
Writing library                          : x265 3.1.104b37fdfd2dc:[Windows][GCC 5.4.0][64 bit] 10bit
Encoding settings                        : cpuid=1111039 / frame-threads=4 / numa-pools=48,48 / wpp / no-pmode / no-pme / no-psnr / no-ssim / log-level=2 / input-csp=1 / input-res=3840x1644 / interlace=0 / total-frames=0 / level-idc=51 / high-tier=1 / uhd-bd=0 / ref=4 / no-allow-non-conformance / repeat-headers / annexb / no-aud / no-hrd / info / hash=0 / no-temporal-layers / open-gop / min-keyint=23 / keyint=250 / gop-lookahead=0 / bframes=4 / b-adapt=2 / b-pyramid / bframe-bias=0 / rc-lookahead=25 / lookahead-slices=4 / scenecut=40 / radl=0 / no-splice / no-intra-refresh / ctu=64 / min-cu-size=8 / rect / no-amp / max-tu-size=32 / tu-inter-depth=1 / tu-intra-depth=1 / limit-tu=0 / rdoq-level=2 / dynamic-rd=0.00 / no-ssim-rd / signhide / no-tskip / nr-intra=0 / nr-inter=0 / no-constrained-intra / strong-intra-smoothing / max-merge=3 / limit-refs=3 / limit-modes / me=3 / subme=3 / merange=57 / temporal-mvp / weightp / no-weightb / no-analyze-src-pics / deblock=0:0 / sao / no-sao-non-deblock / rd=4 / no-early-skip / rskip / no-fast-intra / no-tskip-fast / no-cu-lossless / no-b-intra / no-splitrd-skip / rdpenalty=0 / psy-rd=2.00 / psy-rdoq=1.00 / no-rd-refine / no-lossless / cbqpoffs=0 / crqpoffs=0 / rc=abr / bitrate=22000 / qcomp=0.60 / qpstep=4 / stats-write=0 / stats-read=0 / ipratio=1.40 / pbratio=1.30 / aq-mode=2 / aq-strength=1.00 / cutree / zone-count=0 / no-strict-cbr / qg-size=32 / no-rc-grain / qpmax=69 / qpmin=0 / no-const-vbv / sar=1 / overscan=0 / videoformat=5 / range=0 / colorprim=9 / transfer=16 / colormatrix=9 / chromaloc=0 / display-window=0 / master-display=G(13250,34500)B(7500,3000)R(34000,16000)WP(15635,16450)L(10000000,50)cll=915,258 / min-luma=0 / max-luma=1023 / log2-max-poc-lsb=8 / vui-timing-info / vui-hrd-info / slices=1 / no-opt-qp-pps / no-opt-ref-list-length-pps / no-multi-pass-opt-rps / scenecut-bias=0.05 / no-opt-cu-delta-qp / no-aq-motion / hdr / no-hdr-opt / no-dhdr10-opt / no-idr-recovery-sei / analysis-reuse-level=5 / scale-factor=0 / refine-intra=0 / refine-inter=0 / refine-mv=0 / refine-ctu-distortion=0 / no-limit-sao / ctu-info=0 / no-lowpass-dct / refine-analysis-type=782 / copy-pic=1 / max-ausize-factor=1.0 / no-dynamic-refine / no-single-sei / no-hevc-aq / no-svt / no-field / qp-adaptation-range=1.00
Default                                  : Yes
Forced                                   : No
Color range                              : Limited
Color primaries                          : BT.2020
Transfer characteristics                 : PQ
Matrix coefficients                      : BT.2020 non-constant
Mastering display color primaries        : Display P3
Mastering display luminance              : min: 0.0050 cd/m2, max: 1000 cd/m2
Maximum Content Light Level              : 915 cd/m2
Maximum Frame-Average Light Level        : 258 cd/m2
Audio #1
ID                                       : 2
Format                                   : DTS XLL X
Format/Info                              : Digital Theater Systems
Commercial name                          : DTS-HD Master Audio
Codec ID                                 : A_DTS
Duration                                 : 1 h 52 min
Bit rate mode                            : Variable
Bit rate                                 : 6 787 kb/s
Channel(s)                               : 8 channels
Channel(s)_Original                      : Object Based
ChannelLayout_Original                   : Object Based
Sampling rate                            : 48.0 kHz
Frame rate                               : 93.750 FPS (512 SPF)
Bit depth                                : 24 bits
Stream size                              : 5.32 GiB (21%)
Language                                 : English
Default                                  : Yes
Forced                                   : No
Audio #2
ID                                       : 3
Format                                   : AC-3
Format/Info                              : Audio Coding 3
Commercial name                          : Dolby Digital
Format settings                          : Dolby Surround
Codec ID                                 : A_AC3
Duration                                 : 1 h 52 min
Bit rate mode                            : Constant
Bit rate                                 : 192 kb/s
Channel(s)                               : 2 channels
Channel layout                           : L R
Sampling rate                            : 48.0 kHz
Frame rate                               : 31.250 FPS (1536 SPF)
Compression mode                         : Lossy
Stream size                              : 154 MiB (1%)
Language                                 : English
Service kind                             : Complete Main
Default                                  : No
Forced                                   : No
Audio #3
ID                                       : 4
Format                                   : DTS XLL
Format/Info                              : Digital Theater Systems
Commercial name                          : DTS-HD Master Audio
Codec ID                                 : A_DTS
Duration                                 : 1 h 52 min
Bit rate mode                            : Variable
Bit rate                                 : 2 263 kb/s
Channel(s)                               : 6 channels
Channel layout                           : C L R Ls Rs LFE
Sampling rate                            : 48.0 kHz
Frame rate                               : 93.750 FPS (512 SPF)
Bit depth                                : 16 bits
Compression mode                         : Lossless
Delay relative to video                  : 5 ms
Stream size                              : 1.77 GiB (7%)
Title                                    : Mandarin DTS-HD MA 5.1 @ 2263 kbps(Shangyi)
Language                                 : Chinese
Default                                  : No
Forced                                   : No
Audio #4
ID                                       : 5
Format                                   : AC-3
Format/Info                              : Audio Coding 3
Commercial name                          : Dolby Digital
Codec ID                                 : A_AC3
Duration                                 : 1 h 52 min
Bit rate mode                            : Constant
Bit rate                                 : 384 kb/s
Channel(s)                               : 6 channels
Channel layout                           : L R C LFE Ls Rs
Sampling rate                            : 48.0 kHz
Frame rate                               : 31.250 FPS (1536 SPF)
Compression mode                         : Lossy
Stream size                              : 308 MiB (1%)
Title                                    : Mandarin DD 5.1 @ 384 kbps(Beiying)
Language                                 : Chinese
Service kind                             : Complete Main
Default                                  : No
Forced                                   : No
Text #1
ID                                       : 6
Format                                   : PGS
Muxing mode                              : zlib
Codec ID                                 : S_HDMV/PGS
Codec ID/Info                            : Picture based subtitle format used on BDs/HD-DVDs
Duration                                 : 1 h 44 min
Bit rate                                 : 22.7 kb/s
Frame rate                               : 0.282 FPS
Count of elements                        : 1763
Stream size                              : 16.9 MiB (0%)
Language                                 : English
Default                                  : Yes
Forced                                   : No
Text #2
ID                                       : 7
Format                                   : PGS
Muxing mode                              : zlib
Codec ID                                 : S_HDMV/PGS
Codec ID/Info                            : Picture based subtitle format used on BDs/HD-DVDs
Duration                                 : 1 h 50 min
Bit rate                                 : 13.3 kb/s
Frame rate                               : 0.228 FPS
Count of elements                        : 1519
Stream size                              : 10.6 MiB (0%)
Language                                 : Chinese
Default                                  : No
Forced                                   : No
Text #3
ID                                       : 8
Format                                   : PGS
Muxing mode                              : zlib
Codec ID                                 : S_HDMV/PGS
Codec ID/Info                            : Picture based subtitle format used on BDs/HD-DVDs
Duration                                 : 1 h 51 min
Bit rate                                 : 82.1 kb/s
Frame rate                               : 0.631 FPS
Count of elements                        : 4213
Stream size                              : 65.4 MiB (0%)
Language                                 : English
Default                                  : No
Forced                                   : No
Text #4
ID                                       : 9
Format                                   : PGS
Muxing mode                              : zlib
Codec ID                                 : S_HDMV/PGS
Codec ID/Info                            : Picture based subtitle format used on BDs/HD-DVDs
Duration                                 : 1 h 44 min
Bit rate                                 : 25.9 kb/s
Frame rate                               : 0.495 FPS
Count of elements                        : 3096
Stream size                              : 19.3 MiB (0%)
Language                                 : Chinese
Default                                  : No
Forced                                   : No
Text #5
ID                                       : 10
Format                                   : PGS
Muxing mode                              : zlib
Codec ID                                 : S_HDMV/PGS
Codec ID/Info                            : Picture based subtitle format used on BDs/HD-DVDs
Duration                                 : 1 h 44 min
Bit rate                                 : 34.0 kb/s
Frame rate                               : 0.495 FPS
Count of elements                        : 3096
Stream size                              : 25.3 MiB (0%)
Language                                 : Chinese
Default                                  : No
Forced                                   : No
Text #6
ID                                       : 11
Format                                   : PGS
Muxing mode                              : zlib
Codec ID                                 : S_HDMV/PGS
Codec ID/Info                            : Picture based subtitle format used on BDs/HD-DVDs
Duration                                 : 1 h 44 min
Bit rate                                 : 27.7 kb/s
Frame rate                               : 0.495 FPS
Count of elements                        : 3095
Stream size                              : 20.7 MiB (0%)
Language                                 : Chinese
Default                                  : No
Forced                                   : No
Text #7
ID                                       : 12
Format                                   : PGS
Muxing mode                              : zlib
Codec ID                                 : S_HDMV/PGS
Codec ID/Info                            : Picture based subtitle format used on BDs/HD-DVDs
Duration                                 : 1 h 44 min
Bit rate                                 : 35.8 kb/s
Frame rate                               : 0.495 FPS
Count of elements                        : 3095
Stream size                              : 26.7 MiB (0%)
Language                                 : Chinese
Default                                  : No
Forced                                   : No
Text #8
ID                                       : 13
Format                                   : PGS
Muxing mode                              : zlib
Codec ID                                 : S_HDMV/PGS
Codec ID/Info                            : Picture based subtitle format used on BDs/HD-DVDs
Duration                                 : 1 h 50 min
Bit rate                                 : 13.3 kb/s
Frame rate                               : 0.228 FPS
Count of elements                        : 1519
Stream size                              : 10.6 MiB (0%)
Title                                    : CHT
Language                                 : Chinese
Default                                  : No
Forced                                   : No
Text #9
ID                                       : 14
Format                                   : PGS
Muxing mode                              : zlib
Codec ID                                 : S_HDMV/PGS
Codec ID/Info                            : Picture based subtitle format used on BDs/HD-DVDs
Duration                                 : 1 h 45 min
Bit rate                                 : 54.9 kb/s
Frame rate                               : 0.686 FPS
Count of elements                        : 4334
Stream size                              : 41.3 MiB (0%)
Title                                    : CHT for Manadarin(Beiying)
Language                                 : Chinese
Default                                  : No
Forced                                   : No
Text #10
ID                                       : 15
Format                                   : PGS
Muxing mode                              : zlib
Codec ID                                 : S_HDMV/PGS
Codec ID/Info                            : Picture based subtitle format used on BDs/HD-DVDs
Duration                                 : 1 h 44 min
Bit rate                                 : 28.1 kb/s
Frame rate                               : 0.246 FPS
Count of elements                        : 1545
Stream size                              : 21.0 MiB (0%)
Title                                    : CHS&ENG
Language                                 : Chinese
Default                                  : No
Forced                                   : No
Text #11
ID                                       : 16
Format                                   : PGS
Muxing mode                              : zlib
Codec ID                                 : S_HDMV/PGS
Codec ID/Info                            : Picture based subtitle format used on BDs/HD-DVDs
Duration                                 : 1 h 44 min
Bit rate                                 : 28.3 kb/s
Frame rate                               : 0.245 FPS
Count of elements                        : 1541
Stream size                              : 21.2 MiB (0%)
Title                                    : CHT&ENG
Language                                 : Chinese
Default                                  : No
Forced                                   : No
Menu
00:00:00.000                             : :第 01 章
00:05:47.638                             : :第 02 章
00:12:50.311                             : :第 03 章
00:16:08.759                             : :第 04 章
00:21:15.023                             : :第 05 章
00:26:25.792                             : :第 06 章
00:30:40.880                             : :第 07 章
00:34:09.547                             : :第 08 章
00:40:20.167                             : :第 09 章
00:47:31.306                             : :第 10 章
00:55:55.185                             : :第 11 章
01:02:25.450                             : :第 12 章
01:07:54.779                             : :第 13 章
01:12:18.917                             : :第 14 章
01:19:51.077                             : :第 15 章
01:24:01.036                             : :第 16 章
01:30:25.545                             : :第 17 章
01:37:01.982                             : :第 18 章
01:42:39.111                             : :第 19 章
01:45:33.160                             : :第 20 章
部分资源为软字幕,移动端推荐播放器:MxPlayer,nPlayer,infuse ,其他播放器请自行尝试。
部分资源为软字幕,电脑端推荐播放器:PotPlayer,完美解码,KMPLAYER,其他播放器请自行尝试。






~~~~~~~~~~~~~~~~~~~~~~~~~~~~~~~~~~~~~~~~~
[2008][欧美][动作][BD-4K]无敌浩克[国英多音轨/简繁英字幕].The.Incredible.Hulk.2008.BluRay.2160p.HEVC.Atmos.TrueHD_7.1-Nu

【文件列表】:


The.Incredible.Hulk.2008.BluRay.2160p.HEVC.Atmos.TrueHD_7.1-NukeHD.



【下载地址列表】:


游客
文件下载链接就在这里,在您回复评论成功后才能显示。
请勿回复无意义的灌水内容。


下拉页面到最底部回复或者【点击此处快捷回复】,回复后返回此处即可查看下载链接。
如您没注册本站会员,可以点击注册本站,注册后即可回复下载。



软字幕无法在截图上展现,HDR版本/杜比视界版本截图会出现颜色异常,请使用支持的设备播放!






[img][/img]






[img][/img]

(HDR版本/杜比视界版本,截图会出现颜色异常,请使用支持的设备播放)

小贴士:【影视自媒体解说文案请移步:夏至文案解说网 www.xiazhi.vip

上一篇:[2023][欧美][剧情][BD-1080P]AI创世者[中文字幕].The.Creator.2023.1080p.BluRay.x265.10bit.DTS- 7.95GB
下一篇:[2018][欧美][动作][WEB-4K]古墓丽影:源起之战[HDR/杜比视界双版本][国英多音轨/中文字幕/特效字幕].2018.Bluray.2160p.TrueHD7.1.DoVi.HDR.x26
回复

使用道具 举报

您需要登录后才可以回帖 登录 | 立即注册

本版积分规则

Archiver|手机版|小众纪录片影视聚合

GMT+8, 2024-7-25 03:00 , Processed in 0.092578 second(s), 13 queries , Gzip On, Redis On.

Powered by 小众纪录片影视聚合 @2010-2023

Copyright © 2010-2024, https://www.xzjlp.com/.


免责说明:本站所有内容链接、图文介绍等均来自于互联网网友分享,本站仅支持web页面展示和文字介绍,绝不提供在线观看和存储服务,也不参与录制、上传、压片。若本站收录内容无意侵犯贵司版权,请发邮件到【a885185#163.com】联系本站,我们将在第一时间删除侵权内容。谢谢!

快速回复 返回顶部 返回列表