小众纪录片影视聚合

 找回密码
 立即注册
查看: 8|回复: 0

[蓝光电影] [更 早][香港][动作][BD-1080P]皇家师姐[国语音轨/中英字幕].Yes,.Madam.1985.Bluray.1080p.DD5.1.x264- 7.67GB

[复制链接]

113万

主题

113万

帖子

113万

积分

超级版主

Rank: 8Rank: 8

积分
1134487
发表于 2024-7-9 21:09:07 | 显示全部楼层 |阅读模式


[更 早][香港][动作][BD-1080P]皇家师姐[国语音轨/中英字幕].Yes,.Madam.1985.Bluray.1080p.DD5.1.x264- 7.67GB

完整标题:皇家师姐[国语音轨/中英字幕].Yes,.Madam.1985.Bluray.1080p.DD5.1.x264-DreamHD 7.67GB
◎标  题 皇家师姐
◎译  名 Yes /  Madam! / In the Line of Duty 2 / Police Assassins / 刑警师姐
◎片  名 皇家師姐
◎年  代 1985
◎产  地 中国香港
◎类  别 动作
◎语  言 粤语
◎上映日期 1985-11-30
◎IMDb评分 6.6/10 (2090人评价)
◎IMDb链接 https://www.imdb.com/title/tt0093229/
◎豆瓣评分 6.7/10 (2585人评价)
◎豆瓣链接 https://movie.douban.com/subject/1294467/
◎片  长 Hong Kong: 93 分钟
◎导  演 元奎 Corey Yuen
◎编  剧 黄炳耀 Barry Wong
◎演  员 杨紫琼 Michelle Yeoh
       罗芙洛 Cynthia Rothrock
       岑建勋 John Sham
       徐克 Hark Tsui
       洪金宝 Sammo Hung Kam-Bo
       吴耀汉 Richard Ng
       午马 Wu Ma
       钟发 Fat Chung
       何柏光 Pak-Kwong Ho
       江龙 Long Jiang
       泰山 San Tai
       郭军城 Kwan-Shing Kwok
       彭润祥 Yun-chiang Peng
       林富伟 Fu-wai Lam
       李擎柱 King Chu Lee
       田俊 James Tien Chun
       马玉成 Yuk-Sing Ma
       孟海 Hoi Mang
       林威 Wai Lam
       楼南光 Billy Lau
       沈威 Wai Shum
       太保 Po Tai
       陈果 Fruit Chan
       肥伯 Pak Fei
◎简  介
    督察吴落茜(杨紫琼 饰)身手敏捷、嫉恶如仇,某日在赴约时惊见身为伦敦方面调查员的好友身死,原来该调查员因掌握了田氏集团假合约的胶片而被杀。当日,胶片被闯入宾馆的小偷散利痛(孟海 饰)、止立消(岑建勋 饰)无意中盗走,二人将带有胶片的护照交与师兄弟脱苦海(徐克 饰)加工贩卖。同时,伦敦方面派出女警麦瑞(罗芙洛 饰)赴港调查调查员遇害一案。脱苦海师兄弟三人为了摆脱自己调查员遇害一案的嫌疑,选择向警方告密,结果被假护照买家寻仇。而一直在暗中计划夺回胶片的田氏集团,亦派出杀手追踪脱苦海师兄弟的下落,吴落茜与麦瑞的女警组合只得与脱苦海等人以及田氏集团斗智斗勇……
点击图片可查看大图
软字幕无法在截图上展现,HDR版本/杜比视界版本截图会出现颜色异常,请使用支持的设备播放!
##### MediaInfo ######
General
Unique ID                                : 31327298785152067991112590177903874030 (0x17916B1471CDCEAC989F23A957248FEE)
Complete name                            : Yes,.Madam.1985.Bluray.1080p.DD5.1.x264-DreamHD.mkv
Duration                                 : 1 h 33 min
Overall bit rate                         : 11.8 Mb/s
Video
ID                                       : 1
Format                                   : AVC
Format/Info                              : Advanced Video Codec
Format profile                           : [email protected]
Format settings                          : CABAC / 4 Ref Frames
Format settings, CABAC                   : Yes
Format settings, Reference frames        : 4 frames
Codec ID                                 : V_MPEG4/ISO/AVC
Duration                                 : 1 h 33 min
Bit rate                                 : 11.1 Mb/s
Width                                    : 1 916 pixels
Height                                   : 1 036 pixels
Display aspect ratio                     : 1.85:1
Frame rate mode                          : Constant
Frame rate                               : 23.976 (24000/1001) FPS
Color space                              : YUV
Chroma subsampling                       : 4:2:0
Bit depth                                : 8 bits
Scan type                                : Progressive
Bits/(Pixel*Frame)                       : 0.233
Stream size                              : 7.23 GiB (94%)
Writing library                          : x264 core 157 r2969 d4099dd
Encoding settings                        : cabac=1 / ref=4 / deblock=1:-3:-3 / analyse=0x3:0x133 / me=umh / subme=10 / psy=1 / psy_rd=1.00:0.00 / mixed_ref=1 / me_range=32 / chroma_me=1 / trellis=2 / 8x8dct=1 / cqm=0 / deadzone=21,11 / fast_pskip=0 / chroma_qp_offset=-2 / threads=12 / lookahead_threads=2 / sliced_threads=0 / nr=0 / decimate=0 / interlaced=0 / bluray_compat=0 / constrained_intra=0 / bframes=8 / b_pyramid=2 / b_adapt=2 / b_bias=0 / direct=3 / weightb=1 / open_gop=0 / weightp=2 / keyint=250 / keyint_min=23 / scenecut=40 / intra_refresh=0 / rc=crf / mbtree=0 / crf=17.8 / qcomp=0.60 / qpmin=0 / qpmax=69 / qpstep=4 / ip_ratio=1.40 / pb_ratio=1.30 / aq=3:0.80
Language                                 : Chinese
Default                                  : Yes
Forced                                   : No
Audio
ID                                       : 2
Format                                   : AC-3
Format/Info                              : Audio Coding 3
Commercial name                          : Dolby Digital
Format settings                          : Dolby Surround EX
Codec ID                                 : A_AC3
Duration                                 : 1 h 33 min
Bit rate mode                            : Constant
Bit rate                                 : 640 kb/s
Channel(s)                               : 6 channels
Channel layout                           : L R C LFE Ls Rs
Sampling rate                            : 48.0 kHz
Frame rate                               : 31.250 FPS (1536 SPF)
Compression mode                         : Lossy
Stream size                              : 427 MiB (5%)
Language                                 : Chinese
Service kind                             : Complete Main
Default                                  : Yes
Forced                                   : No
Text #1
ID                                       : 3
Format                                   : PGS
Muxing mode                              : zlib
Codec ID                                 : S_HDMV/PGS
Codec ID/Info                            : Picture based subtitle format used on BDs/HD-DVDs
Duration                                 : 1 h 30 min
Bit rate                                 : 54.1 kb/s
Frame rate                               : 0.517 FPS
Count of elements                        : 2798
Stream size                              : 34.9 MiB (0%)
Language                                 : Chinese
Default                                  : No
Forced                                   : No
Text #2
ID                                       : 4
Format                                   : PGS
Muxing mode                              : zlib
Codec ID                                 : S_HDMV/PGS
Codec ID/Info                            : Picture based subtitle format used on BDs/HD-DVDs
Duration                                 : 1 h 30 min
Bit rate                                 : 44.5 kb/s
Frame rate                               : 0.517 FPS
Count of elements                        : 2798
Stream size                              : 28.7 MiB (0%)
Language                                 : English
Default                                  : No
Forced                                   : No
部分资源为软字幕,移动端推荐播放器:MxPlayer,nPlayer,infuse ,其他播放器请自行尝试。
部分资源为软字幕,电脑端推荐播放器:PotPlayer,完美解码,KMPLAYER,其他播放器请自行尝试。






~~~~~~~~~~~~~~~~~~~~~~~~~~~~~~~~~~~~~~~~~
[更 早][香港][动作][BD-1080P]皇家师姐[国语音轨/中英字幕].Yes,.Madam.1985.Bluray.1080p.DD5.1.x264- 7.67GB

【文件列表】:


Yes,.Madam.1985.Bluray.1080p.DD5.1.x264-DreamHD.



【下载地址列表】:


游客
文件下载链接就在这里,在您回复评论成功后才能显示。
请勿回复无意义的灌水内容。


下拉页面到最底部回复或者【点击此处快捷回复】,回复后返回此处即可查看下载链接。
如您没注册本站会员,可以点击注册本站,注册后即可回复下载。



软字幕无法在截图上展现,HDR版本/杜比视界版本截图会出现颜色异常,请使用支持的设备播放!






[img][/img]






[img][/img]

(HDR版本/杜比视界版本,截图会出现颜色异常,请使用支持的设备播放)

小贴士:【影视自媒体解说文案请移步:夏至文案解说网 www.xiazhi.vip

上一篇:[2021][其它][惊悚][BD-1080P]极道公主[中文字幕].Yakuza.Princess.2021.BluRay.1080p.TrueHD7.1.x264- 15.51GB
下一篇:[更 早][香港][喜剧][BD-1080P]买凶拍人[国语配音/中文字幕].You.Shoot.I.Shoot.2001.Bluray.1080p.TrueHD5.1.x264- 11.34
回复

使用道具 举报

您需要登录后才可以回帖 登录 | 立即注册

本版积分规则

Archiver|手机版|小众纪录片影视聚合

GMT+8, 2024-7-22 06:01 , Processed in 0.270988 second(s), 13 queries , Gzip On, Redis On.

Powered by 小众纪录片影视聚合 @2010-2023

Copyright © 2010-2024, https://www.xzjlp.com/.


免责说明:本站所有内容链接、图文介绍等均来自于互联网网友分享,本站仅支持web页面展示和文字介绍,绝不提供在线观看和存储服务,也不参与录制、上传、压片。若本站收录内容无意侵犯贵司版权,请发邮件到【a885185#163.com】联系本站,我们将在第一时间删除侵权内容。谢谢!

快速回复 返回顶部 返回列表