小众纪录片影视聚合

 找回密码
 立即注册
查看: 11|回复: 0

[蓝光电影] [更 早][香港][喜剧][BD-1080P]买凶拍人[国语配音/中文字幕].You.Shoot.I.Shoot.2001.Bluray.1080p.TrueHD5.1.x264- 11.34

[复制链接]

113万

主题

113万

帖子

113万

积分

超级版主

Rank: 8Rank: 8

积分
1134718
发表于 2024-7-9 21:09:11 | 显示全部楼层 |阅读模式


[更 早][香港][喜剧][BD-1080P]买凶拍人[国语配音/中文字幕].You.Shoot.I.Shoot.2001.Bluray.1080p.TrueHD5.1.x264- 11.34

完整标题:买凶拍人[国语配音/中文字幕].You.Shoot.I.Shoot.2001.Bluray.1080p.TrueHD5.1.x264-DreamHD 11.34GB
◎标  题 买凶拍人
◎译  名 You Shoot /  I Shoot
◎片  名 買兇拍人
◎年  代 2001
◎产  地 中国香港
◎类  别 喜剧 / 动作 / 犯罪
◎语  言 粤语 / 法语 / 日语
◎上映日期 2001-08-16(中国香港)
◎IMDb评分 7.4/10 (1667人评价)
◎IMDb链接 https://www.imdb.com/title/tt0312932/
◎豆瓣评分 8.2/10 (147727人评价)
◎豆瓣链接 https://movie.douban.com/subject/1300616/
◎片  长 99分钟
◎导  演 彭浩翔 Ho-Cheung Pang
◎编  剧 彭浩翔 Ho-Cheung Pang
       谷德昭 Vincent Kok
◎演  员 葛民辉 Eric Kot
       张达明 Tat-Ming Cheung
       詹瑞文 Sui-man Chim
       樋口明日嘉 Asuka Higuchi
       陈惠敏 Wai-Man Chan
       方子璇 Audrey Fong
       陈辉虹 Fai-hung Chan
       缪非临 Fei-Lam Miu
       刘以达 Tats Lau
       林雪 Suet Lam
       邵音音 Yin-Yin Shaw
       王合喜 Ken Wong
       于洋 Henry Yu
       范振锋 Ricky Fan
       彭浩翔 Ho-Cheung Pang
       李道谕 Do-Yu Lee
       曾健勇 Kin-Yung Tsang
       方平 Henry Fong
       茜利妹 Hyper BB
       潘雁英 An-Ying Poon
       王文骏 Man-Chun Wong
       萧洪 Siu Hung
       曾德华 Andy Tsang
       余铭衍 Ming-Hin Yu
       周兆麟 Siu Leun Chow
       毕国智 Kenneth Bi
       汤盈盈 Angela Tong
       兰茜 Lan Sai
       林尚义 Spencer Lam
       郑祖 Joe Cheng
       张咏妍 Wing Cheung
       徐志雄 Terence Tsui
       彭秀慧 Kearen Pang
◎简  介
    职业杀手Bart(葛民辉饰)技艺高超,雇主很多,收入不俗。他与妻子阿玲(方子璇饰)居于高级住宅区,小日子过的非常滋润。可惜好景不长,金融风暴后夫妻二人陷入经济危机。Bart迫于无奈,便为有钱太太杀人服务,不想有钱太太要求苛刻,要Bart在杀人之余还得拍下杀人过程,方泄心头之恨。Bart深明顾客至上的道理,决定找一个拍档合作。凑巧Bart在酒吧见到导演阿全(张达明饰),二人一拍即合,成为了杀手导演二人组,一时间生意大增,一连串的“买凶拍人”行动随即展开。后来江湖大佬标哥听闻,决定聘Bart及阿全代劳,杀死社团叛徒大雄,并要拍下影带,好让他有真凭实据能向社团交代,稳坐执事人一职。这次买凶拍人行动能否成功呢?
点击图片可查看大图
软字幕无法在截图上展现,HDR版本/杜比视界版本截图会出现颜色异常,请使用支持的设备播放!
##### MediaInfo ######
General
Unique ID                                : 143527733814197549884316968995174125680 (0x6BFA6FA055F7D51F930F9719719A9070)
Complete name                            : You.Shoot.I.Shoot.2001.Bluray.1080p.TrueHD5.1.x264-DreamHD.mkv
Duration                                 : 1 h 38 min
Overall bit rate mode                    : Variable
Overall bit rate                         : 16.4 Mb/s
Video
ID                                       : 1
Format                                   : AVC
Format/Info                              : Advanced Video Codec
Format profile                           : [email protected]
Format settings                          : CABAC / 4 Ref Frames
Format settings, CABAC                   : Yes
Format settings, Reference frames        : 4 frames
Codec ID                                 : V_MPEG4/ISO/AVC
Duration                                 : 1 h 38 min
Bit rate                                 : 13.2 Mb/s
Width                                    : 1 918 pixels
Height                                   : 1 080 pixels
Display aspect ratio                     : 16:9
Frame rate mode                          : Constant
Frame rate                               : 24.000 FPS
Color space                              : YUV
Chroma subsampling                       : 4:2:0
Bit depth                                : 8 bits
Scan type                                : Progressive
Bits/(Pixel*Frame)                       : 0.266
Stream size                              : 9.13 GiB (81%)
Writing library                          : x264 core 157 r2867+150 7e91e0e t_mod_Custom_2 [8-bit@all X86_64]
Encoding settings                        : cabac=1 / ref=4 / deblock=1:-3:-3 / analyse=0x3:0x133 / me=umh / subme=11 / psy=1 / fade_compensate=0.00 / psy_rd=0.90:0.10 / mixed_ref=1 / me_range=64 / chroma_me=1 / trellis=2 / 8x8dct=1 / cqm=0 / deadzone=21,11 / fast_pskip=0 / chroma_qp_offset=-4 / threads=34 / lookahead_threads=5 / sliced_threads=0 / nr=0 / decimate=1 / interlaced=0 / bluray_compat=0 / constrained_intra=0 / fgo=0 / bframes=8 / b_pyramid=2 / b_adapt=2 / b_bias=0 / direct=3 / weightb=1 / open_gop=0 / weightp=2 / keyint=250 / keyint_min=24 / scenecut=40 / intra_refresh=0 / rc_lookahead=60 / rc=crf / mbtree=0 / crf=16.5000 / qcomp=0.70 / qpmin=0:0:0 / qpmax=69:69:69 / qpstep=4 / vbv_maxrate=35000 / vbv_bufsize=35000 / crf_max=0.0 / nal_hrd=none / filler=0 / ip_ratio=1.40 / pb_ratio=1.30 / aq=3:1.00 / aq-sensitivity=10.00 / aq-factor=1.00:1.00:1.00 / aq2=0 / aq3=0
Language                                 : Chinese
Default                                  : Yes
Forced                                   : No
Audio #1
ID                                       : 2
Format                                   : AC-3
Format/Info                              : Audio Coding 3
Commercial name                          : Dolby Digital
Codec ID                                 : A_AC3
Duration                                 : 1 h 38 min
Bit rate mode                            : Constant
Bit rate                                 : 384 kb/s
Channel(s)                               : 2 channels
Channel layout                           : L R
Sampling rate                            : 48.0 kHz
Frame rate                               : 31.250 FPS (1536 SPF)
Compression mode                         : Lossy
Stream size                              : 272 MiB (2%)
Language                                 : Chinese
Service kind                             : Complete Main
Default                                  : Yes
Forced                                   : No
Audio #2
ID                                       : 3
Format                                   : MLP FBA
Format/Info                              : Meridian Lossless Packing FBA
Commercial name                          : Dolby TrueHD
Codec ID                                 : A_TRUEHD
Duration                                 : 1 h 38 min
Bit rate mode                            : Variable
Bit rate                                 : 2 685 kb/s
Maximum bit rate                         : 3 882 kb/s
Channel(s)                               : 6 channels
Channel layout                           : L R C LFE Ls Rs
Sampling rate                            : 96.0 kHz
Frame rate                               : 1 200.000 FPS (80 SPF)
Compression mode                         : Lossless
Stream size                              : 1.85 GiB (16%)
Language                                 : Chinese
Default                                  : Yes
Forced                                   : No
Text #1
ID                                       : 4
Format                                   : PGS
Muxing mode                              : zlib
Codec ID                                 : S_HDMV/PGS
Codec ID/Info                            : Picture based subtitle format used on BDs/HD-DVDs
Duration                                 : 1 h 35 min
Bit rate                                 : 42.0 kb/s
Frame rate                               : 0.478 FPS
Count of elements                        : 2752
Stream size                              : 28.8 MiB (0%)
Language                                 : Chinese
Default                                  : Yes
Forced                                   : No
Text #2
ID                                       : 5
Format                                   : PGS
Muxing mode                              : zlib
Codec ID                                 : S_HDMV/PGS
Codec ID/Info                            : Picture based subtitle format used on BDs/HD-DVDs
Duration                                 : 1 h 35 min
Bit rate                                 : 45.4 kb/s
Frame rate                               : 0.478 FPS
Count of elements                        : 2752
Stream size                              : 31.1 MiB (0%)
Language                                 : Chinese
Default                                  : Yes
Forced                                   : No
Text #3
ID                                       : 6
Format                                   : PGS
Muxing mode                              : zlib
Codec ID                                 : S_HDMV/PGS
Codec ID/Info                            : Picture based subtitle format used on BDs/HD-DVDs
Duration                                 : 1 h 35 min
Bit rate                                 : 45.9 kb/s
Frame rate                               : 0.478 FPS
Count of elements                        : 2752
Stream size                              : 31.5 MiB (0%)
Language                                 : English
Default                                  : Yes
Forced                                   : No
Menu
00:00:00.000                             : en:第 01 章
00:06:56.458                             : en:第 02 章
00:15:27.042                             : en:第 03 章
00:23:43.667                             : en:第 04 章
00:33:09.667                             : en:第 05 章
00:41:07.917                             : en:第 06 章
00:49:08.917                             : en:第 07 章
00:57:49.500                             : en:第 08 章
01:03:57.125                             : en:第 09 章
01:13:32.083                             : en:第 10 章
01:21:45.208                             : en:第 11 章
01:31:57.000                             : en:第 12 章
部分资源为软字幕,移动端推荐播放器:MxPlayer,nPlayer,infuse ,其他播放器请自行尝试。
部分资源为软字幕,电脑端推荐播放器:PotPlayer,完美解码,KMPLAYER,其他播放器请自行尝试。






~~~~~~~~~~~~~~~~~~~~~~~~~~~~~~~~~~~~~~~~~
[更 早][香港][喜剧][BD-1080P]买凶拍人[国语配音/中文字幕].You.Shoot.I.Shoot.2001.Bluray.1080p.TrueHD5.1.x264- 11.34

【文件列表】:


You.Shoot.I.Shoot.2001.Bluray.1080p.TrueHD5.1.x264-DreamHD.



【下载地址列表】:


游客
文件下载链接就在这里,在您回复评论成功后才能显示。
请勿回复无意义的灌水内容。


下拉页面到最底部回复或者【点击此处快捷回复】,回复后返回此处即可查看下载链接。
如您没注册本站会员,可以点击注册本站,注册后即可回复下载。



软字幕无法在截图上展现,HDR版本/杜比视界版本截图会出现颜色异常,请使用支持的设备播放!






[img][/img]






[img][/img]

(HDR版本/杜比视界版本,截图会出现颜色异常,请使用支持的设备播放)

小贴士:【影视自媒体解说文案请移步:夏至文案解说网 www.xiazhi.vip

上一篇:[更 早][香港][动作][BD-1080P]皇家师姐[国语音轨/中英字幕].Yes,.Madam.1985.Bluray.1080p.DD5.1.x264- 7.67GB
下一篇:[2020][欧美][悬疑][BD-1080P]你本应离开[中文字幕].You.Should.Have.Left.2020.BluRay.1080p.DTS-HD.MA.5.1.x264- 12
回复

使用道具 举报

您需要登录后才可以回帖 登录 | 立即注册

本版积分规则

Archiver|手机版|小众纪录片影视聚合

GMT+8, 2024-7-22 06:49 , Processed in 0.259029 second(s), 13 queries , Gzip On, Redis On.

Powered by 小众纪录片影视聚合 @2010-2023

Copyright © 2010-2024, https://www.xzjlp.com/.


免责说明:本站所有内容链接、图文介绍等均来自于互联网网友分享,本站仅支持web页面展示和文字介绍,绝不提供在线观看和存储服务,也不参与录制、上传、压片。若本站收录内容无意侵犯贵司版权,请发邮件到【a885185#163.com】联系本站,我们将在第一时间删除侵权内容。谢谢!

快速回复 返回顶部 返回列表