小众纪录片影视聚合

 找回密码
 立即注册
查看: 2|回复: 0

[蓝光电影] [更 早][欧美][喜剧][BD-1080P]新科学怪人[简繁英字幕].Young.Frankenstein.1974.BluRay.1080p.DTS-HD.MA.5.1.x264- 11.

[复制链接]

116万

主题

116万

帖子

116万

积分

超级版主

Rank: 8Rank: 8

积分
1167997
发表于 2024-7-9 21:09:21 | 显示全部楼层 |阅读模式


[更 早][欧美][喜剧][BD-1080P]新科学怪人[简繁英字幕].Young.Frankenstein.1974.BluRay.1080p.DTS-HD.MA.5.1.x264- 11.

完整标题:新科学怪人[简繁英字幕].Young.Frankenstein.1974.BluRay.1080p.DTS-HD.MA.5.1.x264-DreamHD 11.80GB
◎标  题 新科学怪人
◎译  名 年轻的科学怪人
◎片  名 Young Frankenstein
◎年  代 1974
◎产  地 美国
◎类  别 喜剧 / 科幻
◎语  言 英语 / 德语
◎上映日期 1974-12-15
◎IMDb评分 8/10 (161455人评价)
◎IMDb链接 https://www.imdb.com/title/tt0072431/
◎豆瓣评分 7.5/10 (2125人评价)
◎豆瓣链接 https://movie.douban.com/subject/1293782/
◎片  长 106 分钟
◎导  演 梅尔·布鲁克斯 Mel Brooks
◎编  剧 吉恩·怀尔德 Gene Wilder
       梅尔·布鲁克斯 Mel Brooks
       玛丽·雪莱 Mary Shelley
◎演  员 吉恩·怀尔德 Gene Wilder
       彼得·博伊尔 Peter Boyle
       马蒂·费德曼 Marty Feldman
       玛德莲·卡恩 Madeline Kahn
       克萝丽丝·利奇曼 Cloris Leachman
       特瑞·加尔 Teri Garr
       肯尼思·马尔斯 Kenneth Mars
       理查德·海顿 Richard Haydn
       利亚姆·邓恩 Liam Dunn
       Oscar Beregi Jr. Oscar Beregi Jr.
       阿瑟·马利特 Arthur Malet
       Monte Landis Monte Landis
       吉恩·哈克曼 Gene Hackman
       罗尔夫·塞丹 Rolfe Sedan
       Randolph Dobbs Randolph Dobbs
       Norbert Schiller Norbert Schiller
       Michael Fox Michael Fox
       伊安·艾伯克龙比 Ian Abercrombie
       莱昂·阿斯金 Leon Askin
       梅尔·布鲁克斯 Mel Brooks
       Peter Paul Eastman Peter Paul Eastman
       Peter Halton Peter Halton
       贝里·克勒格尔 Berry Kroeger
       Ethelreda Leopold Ethelreda Leopold
       Jeff Maxwell Jeff Maxwell
       Ernesto Molinari Ernesto Molinari
       Monty O'Grady Monty O'Grady
       利奥达·理查德斯 Leoda Richards
       Paul Russell Paul Russell
       Maida Severn Maida Severn
       诺尔曼·斯蒂凡斯 Norman Stevans
       Arthur Tovey Arthur Tovey
       克莱门特·冯·弗兰肯斯坦 Clement von Franckenstein
       Max Wagner Max Wagner
◎简  介
    年轻的法克斯坦博士神推鬼撞下来到祖父的城堡,无意中发现了一本祖父的记事簿,在驼背人伊哥与性感野性的伊加帮助下,加上偷回来的脑,根据祖父的科学实验资料,成功制造了一具怪物–科学怪人。可惜,偷回来的脑出了岔子,导致科学怪人极渴望被爱,它离家出走,在郊外遇上小女孩与一名瞎子……                                    影史上数一数二爆笑到极点的电影!请务必先看过1931年的《科学怪人》及1935年的《科学怪人的新娘》电影版本再来看本片,因为本片所有镜头、对白、桥段、造型等,皆和旧版作了对比,却大大颠覆成搞笑版本!
点击图片可查看大图
软字幕无法在截图上展现,HDR版本/杜比视界版本截图会出现颜色异常,请使用支持的设备播放!
##### MediaInfo ######
General
Unique ID                                : 106981975333873270229817184893147810825 (0x507BFA9E77A63066F8176D69C2180C09)
Complete name                            : Young.Frankenstein.1974.BluRay.1080p.DTS-HD.MA.5.1.x264-DreamHD.mkv
Duration                                 : 1 h 45 min
Overall bit rate mode                    : Variable
Overall bit rate                         : 16.0 Mb/s
Video
ID                                       : 1
Format                                   : AVC
Format/Info                              : Advanced Video Codec
Format profile                           : [email protected]
Format settings                          : CABAC / 4 Ref Frames
Format settings, CABAC                   : Yes
Format settings, Reference frames        : 4 frames
Codec ID                                 : V_MPEG4/ISO/AVC
Duration                                 : 1 h 45 min
Bit rate                                 : 12.7 Mb/s
Width                                    : 1 916 pixels
Height                                   : 1 038 pixels
Display aspect ratio                     : 1.85:1
Frame rate mode                          : Constant
Frame rate                               : 23.976 (24000/1001) FPS
Color space                              : YUV
Chroma subsampling                       : 4:2:0
Bit depth                                : 8 bits
Scan type                                : Progressive
Bits/(Pixel*Frame)                       : 0.266
Stream size                              : 9.38 GiB (79%)
Writing library                          : x264 core 157 r2867+150 7e91e0e t_mod_Custom_2 [8-bit@all X86_64]
Encoding settings                        : cabac=1 / ref=4 / deblock=1:-3:-3 / analyse=0x3:0x133 / me=umh / subme=11 / psy=1 / fade_compensate=0.00 / psy_rd=0.95:0.10 / mixed_ref=1 / me_range=48 / chroma_me=1 / trellis=2 / 8x8dct=1 / cqm=0 / deadzone=21,11 / fast_pskip=0 / chroma_qp_offset=-4 / threads=30 / lookahead_threads=5 / sliced_threads=0 / nr=0 / decimate=1 / interlaced=0 / bluray_compat=0 / constrained_intra=0 / fgo=0 / bframes=8 / b_pyramid=2 / b_adapt=2 / b_bias=0 / direct=3 / weightb=1 / open_gop=0 / weightp=2 / keyint=250 / keyint_min=23 / scenecut=40 / intra_refresh=0 / rc_lookahead=60 / rc=2pass / mbtree=0 / bitrate=12700 / ratetol=1.0 / qcomp=0.70 / qpmin=0:0:0 / qpmax=69:69:69 / qpstep=4 / cplxblur=20.0 / qblur=0.5 / vbv_maxrate=35000 / vbv_bufsize=35000 / nal_hrd=none / filler=0 / ip_ratio=1.40 / pb_ratio=1.30 / aq=3:1.00 / aq-sensitivity=10.00 / aq-factor=1.00:1.00:1.00 / aq2=0 / aq3=2:[0.50:0.50]:[0.50:0.50]:[0.50:0.50]:[0.50:0.50] / aq3-sensitivity=10.00 / aq3-factor=[1.00:1.00]:[1.00:1.00]:[1.00:1.00] / aq3-boundary=192:64:24
Default                                  : Yes
Forced                                   : No
Audio
ID                                       : 2
Format                                   : DTS XLL
Format/Info                              : Digital Theater Systems
Commercial name                          : DTS-HD Master Audio
Codec ID                                 : A_DTS
Duration                                 : 1 h 45 min
Bit rate mode                            : Variable
Bit rate                                 : 3 215 kb/s
Channel(s)                               : 6 channels
Channel layout                           : C L R Ls Rs LFE
Sampling rate                            : 48.0 kHz
Frame rate                               : 93.750 FPS (512 SPF)
Bit depth                                : 24 bits
Compression mode                         : Lossless
Stream size                              : 2.37 GiB (20%)
Language                                 : English
Default                                  : Yes
Forced                                   : No
Text #1
ID                                       : 3
Format                                   : PGS
Muxing mode                              : zlib
Codec ID                                 : S_HDMV/PGS
Codec ID/Info                            : Picture based subtitle format used on BDs/HD-DVDs
Duration                                 : 1 h 44 min
Bit rate                                 : 53.5 kb/s
Frame rate                               : 0.440 FPS
Count of elements                        : 2754
Stream size                              : 39.9 MiB (0%)
Language                                 : English
Default                                  : Yes
Forced                                   : No
Text #2
ID                                       : 4
Format                                   : PGS
Muxing mode                              : zlib
Codec ID                                 : S_HDMV/PGS
Codec ID/Info                            : Picture based subtitle format used on BDs/HD-DVDs
Duration                                 : 1 h 41 min
Bit rate                                 : 24.6 kb/s
Frame rate                               : 0.387 FPS
Count of elements                        : 2348
Stream size                              : 17.8 MiB (0%)
Title                                    : CHS
Language                                 : Chinese
Default                                  : Yes
Forced                                   : No
Text #3
ID                                       : 5
Format                                   : PGS
Muxing mode                              : zlib
Codec ID                                 : S_HDMV/PGS
Codec ID/Info                            : Picture based subtitle format used on BDs/HD-DVDs
Duration                                 : 1 h 45 min
Bit rate                                 : 44.3 kb/s
Frame rate                               : 0.373 FPS
Count of elements                        : 2352
Stream size                              : 33.4 MiB (0%)
Title                                    : CHT
Language                                 : Chinese
Default                                  : Yes
Forced                                   : No
Menu
00:00:00.000                             : en:第 01 章
00:05:08.808                             : en:第 02 章
00:12:08.561                             : en:第 03 章
00:15:06.739                             : en:第 04 章
00:19:05.895                             : en:第 05 章
00:23:45.341                             : en:第 06 章
00:28:27.748                             : en:第 07 章
00:33:44.606                             : en:第 08 章
00:35:35.925                             : en:第 09 章
00:39:39.043                             : en:第 10 章
00:40:54.285                             : en:第 11 章
00:48:24.693                             : en:第 12 章
00:51:11.193                             : en:第 13 章
00:52:14.381                             : en:第 14 章
00:58:20.163                             : en:第 15 章
01:01:32.439                             : en:第 16 章
01:04:56.392                             : en:第 17 章
01:06:35.074                             : en:第 18 章
01:11:18.399                             : en:第 19 章
01:16:43.891                             : en:第 20 章
01:23:51.610                             : en:第 21 章
01:25:41.428                             : en:第 22 章
01:28:50.492                             : en:第 23 章
01:29:52.178                             : en:第 24 章
01:31:41.830                             : en:第 25 章
01:35:27.847                             : en:第 26 章
01:37:46.652                             : en:第 27 章
01:41:49.270                             : en:第 28 章
部分资源为软字幕,移动端推荐播放器:MxPlayer,nPlayer,infuse ,其他播放器请自行尝试。
部分资源为软字幕,电脑端推荐播放器:PotPlayer,完美解码,KMPLAYER,其他播放器请自行尝试。






~~~~~~~~~~~~~~~~~~~~~~~~~~~~~~~~~~~~~~~~~
[更 早][欧美][喜剧][BD-1080P]新科学怪人[简繁英字幕].Young.Frankenstein.1974.BluRay.1080p.DTS-HD.MA.5.1.x264- 11.

【文件列表】:


Young.Frankenstein.1974.BluRay.1080p.DTS-HD.MA.5.1.x264-DreamHD.



【下载地址列表】:


游客
文件下载链接就在这里,在您回复评论成功后才能显示。
请勿回复无意义的灌水内容。


下拉页面到最底部回复或者【点击此处快捷回复】,回复后返回此处即可查看下载链接。
如您没注册本站会员,可以点击注册本站,注册后即可回复下载。



软字幕无法在截图上展现,HDR版本/杜比视界版本截图会出现颜色异常,请使用支持的设备播放!






[img][/img]






[img][/img]

(HDR版本/杜比视界版本,截图会出现颜色异常,请使用支持的设备播放)

小贴士:【影视自媒体解说文案请移步:夏至文案解说网 www.xiazhi.vip

上一篇:[2013][大陆][动作][BD-1080P]狄仁杰之神都龙王[国语配音].Young.Detective.Dee.Rise.Of.The.Sea.Dragon.2013.BluRay.1080p.DTS.
下一篇:[2015][其它][剧情][BD-1080P]年轻气盛[简繁字幕].Youth.2015.ITA.BluRay.1080p.DTS.2Audio.x264- 11.22GB
回复

使用道具 举报

您需要登录后才可以回帖 登录 | 立即注册

本版积分规则

Archiver|手机版|小众纪录片影视聚合

GMT+8, 2024-7-25 01:21 , Processed in 0.147419 second(s), 13 queries , Gzip On, Redis On.

Powered by 小众纪录片影视聚合 @2010-2023

Copyright © 2010-2024, https://www.xzjlp.com/.


免责说明:本站所有内容链接、图文介绍等均来自于互联网网友分享,本站仅支持web页面展示和文字介绍,绝不提供在线观看和存储服务,也不参与录制、上传、压片。若本站收录内容无意侵犯贵司版权,请发邮件到【a885185#163.com】联系本站,我们将在第一时间删除侵权内容。谢谢!

快速回复 返回顶部 返回列表