小众纪录片影视聚合

 找回密码
 立即注册
查看: 11|回复: 0

[蓝光电影] [2015][其它][剧情][BD-1080P]年轻气盛[简繁字幕].Youth.2015.ITA.BluRay.1080p.DTS.2Audio.x264- 11.22GB

[复制链接]

116万

主题

116万

帖子

116万

积分

超级版主

Rank: 8Rank: 8

积分
1167997
发表于 2024-7-9 21:09:25 | 显示全部楼层 |阅读模式


[2015][其它][剧情][BD-1080P]年轻气盛[简繁字幕].Youth.2015.ITA.BluRay.1080p.DTS.2Audio.x264- 11.22GB

完整标题:年轻气盛[简繁字幕].Youth.2015.ITA.BluRay.1080p.DTS.2Audio.x264-DreamHD 11.22GB
◎标  题 年轻气盛
◎译  名 回春(港) / 青春 / Il futuro / La giovinezza / In the Future / The Early Years
◎片  名 Youth
◎年  代 2015
◎产  地 意大利 / 法国 / 瑞士 / 英国
◎类  别 剧情 / 喜剧
◎语  言 英语 / 西班牙语 / 瑞士德语
◎上映日期 2015-05-20(戛纳电影节 / 意大利)
◎IMDb评分 7.3/10 (82158人评价)
◎IMDb链接 https://www.imdb.com/title/tt3312830/
◎豆瓣评分 8.2/10 (138247人评价)
◎豆瓣链接 https://movie.douban.com/subject/25766754/
◎片  长 124分钟
◎导  演 保罗·索伦蒂诺 Paolo Sorrentino
◎编  剧 保罗·索伦蒂诺 Paolo Sorrentino
◎演  员 迈克尔·凯恩 Michael Caine
       保罗·达诺 Paul Dano
       蕾切尔·薇兹 Rachel Weisz
       简·方达 Jane Fonda
       哈威·凯特尔 Harvey Keitel
       内芙·加切夫 Neve Gachev
       埃德·斯托帕德 Ed Stoppard
       马达丽娜·珍娜 Madalina Ghenea
       马克·科兹莱克 Mark Kozelek
       亚历克斯·麦奎因 Alex Macqueen
       艾米莉亚·琼斯 Emilia Jones
       波佩·科比-特曲 Poppy Corby-Tuech
       汤姆·里皮斯基 Tom Lipinski
       克洛伊·皮里 Chloe Pirrie
       帕洛玛·费丝 Paloma Faith
       洛雷达纳·卡纳塔 Loredana Cannata
       露娜·米乔维克 Luna Mijovic
       安娜贝尔·库帖 Anabel Kutay
       尤吉尼亚·克鲁索 Eugenia Caruso
       卡罗莱娜·卡尔松 Carolina Carlsson
       劳拉·德·马奇 Laura De Marchi
       利奥·阿丁·博钦 Leo Artin Boschin
       比阿特丽斯·克纽 Beatrice Curnew
       罗伯特·泽塔勒 Robert Seethaler
◎简  介
    老友米克和弗雷德结伴前往阿尔卑斯的度假旅馆,他们以爱和幽默的视角,探讨子女们满是麻烦的生活。米克是导演,正在积极创作自己看来最重要的一部电影,而早就没有了事业追求的指挥家、作曲家弗雷德却收到女王伊丽莎白二世的邀请为菲利普的生日演奏。
点击图片可查看大图
软字幕无法在截图上展现,HDR版本/杜比视界版本截图会出现颜色异常,请使用支持的设备播放!
##### MediaInfo ######
General
Unique ID                                : 190732721800715056793737584861934280662 (0x8F7DC939331DB245ABE9EC8C4A105FD6)
Complete name                            : Youth.2015.ITA.BluRay.1080p.DTS.2Audio.x264-DreamHD.mkv
Duration                                 : 2 h 3 min
Overall bit rate                         : 13.0 Mb/s
Video
ID                                       : 1
Format                                   : AVC
Format/Info                              : Advanced Video Codec
Format profile                           : [email protected]
Format settings                          : CABAC / 5 Ref Frames
Format settings, CABAC                   : Yes
Format settings, Reference frames        : 5 frames
Codec ID                                 : V_MPEG4/ISO/AVC
Duration                                 : 2 h 3 min
Bit rate                                 : 9 947 kb/s
Width                                    : 1 920 pixels
Height                                   : 804 pixels
Display aspect ratio                     : 2.40:1
Frame rate mode                          : Constant
Frame rate                               : 23.976 (24000/1001) FPS
Color space                              : YUV
Chroma subsampling                       : 4:2:0
Bit depth                                : 8 bits
Scan type                                : Progressive
Bits/(Pixel*Frame)                       : 0.269
Stream size                              : 8.58 GiB (77%)
Writing library                          : x264 core 148 r2744+55 950084e t_mod_Custom [8-bit@all X86]
Encoding settings                        : cabac=1 / ref=5 / deblock=1:-3:-3 / analyse=0x3:0x133 / me=umh / subme=11 / psy=1 / fade_compensate=0.00 / psy_rd=1.00:0.00 / mixed_ref=1 / me_range=32 / chroma_me=1 / trellis=2 / 8x8dct=1 / cqm=0 / deadzone=21,11 / fast_pskip=1 / chroma_qp_offset=-2 / threads=6 / lookahead_threads=1 / sliced_threads=0 / nr=0 / decimate=1 / interlaced=0 / bluray_compat=0 / constrained_intra=0 / fgo=0 / bframes=9 / b_pyramid=2 / b_adapt=2 / b_bias=0 / direct=1 / weightb=1 / open_gop=0 / weightp=2 / keyint=240 / keyint_min=23 / scenecut=40 / intra_refresh=0 / rc=crf / mbtree=0 / crf=17.5000 / qcomp=0.60 / qpmin=0:0:0 / qpmax=69:69:69 / qpstep=4 / ip_ratio=1.40 / pb_ratio=1.30 / aq=3:1.00 / aq-sensitivity=10.00 / aq-factor=1.00:1.00:1.00 / aq2=0 / aq3=0
Language                                 : English
Default                                  : Yes
Forced                                   : No
Audio #1
ID                                       : 2
Format                                   : DTS
Format/Info                              : Digital Theater Systems
Codec ID                                 : A_DTS
Duration                                 : 2 h 3 min
Bit rate mode                            : Constant
Bit rate                                 : 1 509 kb/s
Channel(s)                               : 6 channels
Channel layout                           : C L R Ls Rs LFE
Sampling rate                            : 48.0 kHz
Frame rate                               : 93.750 FPS (512 SPF)
Bit depth                                : 16 bits
Compression mode                         : Lossy
Stream size                              : 1.30 GiB (12%)
Title                                    : Italian
Language                                 : Italian
Default                                  : Yes
Forced                                   : No
Audio #2
ID                                       : 3
Format                                   : DTS
Format/Info                              : Digital Theater Systems
Codec ID                                 : A_DTS
Duration                                 : 2 h 3 min
Bit rate mode                            : Constant
Bit rate                                 : 1 509 kb/s
Channel(s)                               : 6 channels
Channel layout                           : C L R Ls Rs LFE
Sampling rate                            : 48.0 kHz
Frame rate                               : 93.750 FPS (512 SPF)
Bit depth                                : 24 bits
Compression mode                         : Lossy
Stream size                              : 1.30 GiB (12%)
Title                                    : English
Language                                 : English
Default                                  : No
Forced                                   : No
Text #1
ID                                       : 4
Format                                   : PGS
Muxing mode                              : zlib
Codec ID                                 : S_HDMV/PGS
Codec ID/Info                            : Picture based subtitle format used on BDs/HD-DVDs
Duration                                 : 1 h 49 min
Bit rate                                 : 13.8 kb/s
Frame rate                               : 0.330 FPS
Count of elements                        : 2166
Stream size                              : 10.8 MiB (0%)
Title                                    : Chs
Language                                 : Chinese
Default                                  : Yes
Forced                                   : No
Text #2
ID                                       : 5
Format                                   : PGS
Muxing mode                              : zlib
Codec ID                                 : S_HDMV/PGS
Codec ID/Info                            : Picture based subtitle format used on BDs/HD-DVDs
Duration                                 : 1 h 49 min
Bit rate                                 : 14.0 kb/s
Frame rate                               : 0.330 FPS
Count of elements                        : 2166
Stream size                              : 11.0 MiB (0%)
Title                                    : Cht
Language                                 : Chinese
Default                                  : No
Forced                                   : No
Text #3
ID                                       : 6
Format                                   : PGS
Muxing mode                              : zlib
Codec ID                                 : S_HDMV/PGS
Codec ID/Info                            : Picture based subtitle format used on BDs/HD-DVDs
Duration                                 : 1 h 50 min
Bit rate                                 : 8 585 b/s
Frame rate                               : 0.336 FPS
Count of elements                        : 2224
Stream size                              : 6.77 MiB (0%)
Title                                    : Ita
Language                                 : Italian
Default                                  : No
Forced                                   : No
Menu
00:00:00.000                             : :Chapter 01
00:07:52.805                             : :Chapter 02
00:13:19.548                             : :Chapter 03
00:20:04.620                             : :Chapter 04
00:26:32.549                             : :Chapter 05
00:43:57.635                             : :Chapter 06
00:47:56.331                             : :Chapter 07
00:53:46.056                             : :Chapter 08
00:56:47.487                             : :Chapter 09
01:03:54.330                             : :Chapter 10
01:15:18.180                             : :Chapter 11
01:23:02.769                             : :Chapter 12
01:30:32.427                             : :Chapter 13
01:35:09.870                             : :Chapter 14
01:43:46.053                             : :Chapter 15
01:47:43.623                             : :Chapter 16
部分资源为软字幕,移动端推荐播放器:MxPlayer,nPlayer,infuse ,其他播放器请自行尝试。
部分资源为软字幕,电脑端推荐播放器:PotPlayer,完美解码,KMPLAYER,其他播放器请自行尝试。






~~~~~~~~~~~~~~~~~~~~~~~~~~~~~~~~~~~~~~~~~
[2015][其它][剧情][BD-1080P]年轻气盛[简繁字幕].Youth.2015.ITA.BluRay.1080p.DTS.2Audio.x264- 11.22GB

【文件列表】:


Youth.2015.ITA.BluRay.1080p.DTS.2Audio.x264-DreamHD.



【下载地址列表】:


游客
文件下载链接就在这里,在您回复评论成功后才能显示。
请勿回复无意义的灌水内容。


下拉页面到最底部回复或者【点击此处快捷回复】,回复后返回此处即可查看下载链接。
如您没注册本站会员,可以点击注册本站,注册后即可回复下载。



软字幕无法在截图上展现,HDR版本/杜比视界版本截图会出现颜色异常,请使用支持的设备播放!






[img][/img]






[img][/img]

(HDR版本/杜比视界版本,截图会出现颜色异常,请使用支持的设备播放)

小贴士:【影视自媒体解说文案请移步:夏至文案解说网 www.xiazhi.vip

上一篇:[更 早][欧美][喜剧][BD-1080P]新科学怪人[简繁英字幕].Young.Frankenstein.1974.BluRay.1080p.DTS-HD.MA.5.1.x264- 11.
下一篇:[2023][大陆][动作][WEB-4K]画江湖之天罡[杜比视界版本][国语音轨/中文字幕].The.Legend.2023.2160p.WEB-DL.H265.DV.DDP2.0- 7.16
回复

使用道具 举报

您需要登录后才可以回帖 登录 | 立即注册

本版积分规则

Archiver|手机版|小众纪录片影视聚合

GMT+8, 2024-7-25 02:29 , Processed in 0.313131 second(s), 13 queries , Gzip On, Redis On.

Powered by 小众纪录片影视聚合 @2010-2023

Copyright © 2010-2024, https://www.xzjlp.com/.


免责说明:本站所有内容链接、图文介绍等均来自于互联网网友分享,本站仅支持web页面展示和文字介绍,绝不提供在线观看和存储服务,也不参与录制、上传、压片。若本站收录内容无意侵犯贵司版权,请发邮件到【a885185#163.com】联系本站,我们将在第一时间删除侵权内容。谢谢!

快速回复 返回顶部 返回列表